Сегодня идет свободное скачивание без начисления Download

Первое лето (1974) TVRip

Ответить на тему
 
Автор
Сообщение

Omen ®

Стаж: 5 лет 10 месяцев

Сообщений: 184329

Торрент-статистика

Пост 13-Янв-2013 10:25

[Цитировать]

-Первое лето (1974) TVRip- Русское название: Первое лето
Год выпуска: 1974
Жанр: Драма, Мелодрама
Описание фильма:
По мотивам рассказа Эгонса Ливса "Прелюдия".
Семнадцатилетний Гайтис еще найдет свою песню, свою любовь.
А всё, что с ним случилось в Интупе, куда он приехал на стройку после окончания школы, было только прелюдией, прекрасной прелюдией его юности...
Режиссер: Ада Неретниеце
Актеры: Милена Тонтегоде, Варис Ветра, Гирт Яковлев, Эдуард Павулс, Айварс Богданович, Харий Авенс, Ирина Томсоне, Волдемар Берзайс, Андрис Берзиньш
Продолжительность: 01:09:37
Видеокодек: Xvid
Битрейт видео: ~1350 kb/s
Размер кадра: 720 x 544
Качество видео: TVRip
Аудиокодек: MP3, 2 ch
Битрейт аудио: 128 kb/s

MediaInfo

Общее
Полное имя : Pervoe leto 1974.avi
Формат : AVI
Формат/Информация : Audio Video Interleave
Размер файла : 741 Мбайт
Продолжительность : 1 ч. 9 м.
Общий поток : 1488 Кбит/сек
Программа кодирования : VirtualDubMod 1.5.10.3 | www.virtualdub-fr.org || (build 2550/release)
Библиотека кодирования : VirtualDubMod build 2550/release
Видео
Идентификатор : 0
Формат : MPEG-4 Visual
Профиль формата : Advanced [email protected]
Параметр BVOP формата : 2
Параметр QPel формата : Нет
Параметр GMC формата : Без точки перехода
Параметр матрицы формата : Default (H.263)
Идентификатор кодека : XVID
Идентификатор кодека/Подсказка : XviD
Продолжительность : 1 ч. 9 м.
Битрейт : 1350 Кбит/сек
Ширина : 720 пикселей
Высота : 544 пикселя
Соотношение сторон : 4:3
Частота кадров : 25,000 кадров/сек
Цветовое пространство : YUV
Субдискретизация насыщенности : 4:2:0
Битовая глубина : 8 бит
Тип развёртки : Прогрессивная
Метод сжатия : С потерями
Бит/(Пиксели*Кадры) : 0.138
Размер потока : 672 Мбайт (91%)
Библиотека кодирования : XviD 1.2.1 (UTC 2008-12-04)
Аудио
Идентификатор : 1
Формат : MPEG Audio
Версия формата : Version 1
Профиль формата : Layer 3
Идентификатор кодека : 55
Идентификатор кодека/Подсказка : MP3
Продолжительность : 1 ч. 9 м.
Вид битрейта : Постоянный
Битрейт : 128 Кбит/сек
Каналы : 2 канала
Частота : 48,0 КГц
Метод сжатия : С потерями
Размер потока : 63,7 Мбайт (9%)
Выравнивание : Соединение по промежуткам
Продолжительность промежутка : 40 мс. (1,00 видеокадр)
Время предзагрузки промежутка : 504 мс.
Библиотека кодирования : LAME3.99r
Настройки программы : -m s -V 4 -q 2 -lowpass 17 -b 128
Скриншоты:          Время раздачи: С 13:00 до 21:00 (до 5 скачавших)Приятного просмотра!
Вне форума [Профиль] [ЛС]
Показать сообщения:    
Ответить на тему

Текущее время: Сегодня 14:17

Часовой пояс: GMT + 3



Вы не можете начинать темы
Вы не можете отвечать на сообщения
Вы не можете редактировать свои сообщения
Вы не можете удалять свои сообщения
Вы не можете голосовать в опросах
Вы не можете прикреплять файлы к сообщениям
Вы не можете скачивать файлы