Сегодня идет свободное скачивание без начисления Download

Несовершеннолетние (1976) DVDRip

Ответить на тему
 
Автор
Сообщение

Omen ®

Стаж: 6 лет

Сообщений: 184329

Торрент-статистика

Пост 13-Янв-2013 10:25

[Цитировать]

-Несовершеннолетние (1976) DVDRip- Русское название: Несовершеннолетние
Год выпуска: 1976
Жанр: Социальная драма
Производство: Центральная киностудия детских и юношеских фильмов имени М.Горького
Описание фильма:
В родной город возвращаются двое друзей - Евгений из воздушно-десантных войск и его друг Костя из колонии, куда он попал за пьяную драку. Встретившись, приятели решили уехать из родного города: одного не дождалась любимая девушка, другого тяготят сочувствующие взгляды знакомых. Но вскоре друзья понимают, что и в родном дворе можно найти применение их пока ещё небольшому жизненному опыту. Неожиданно им приходится вступить в схватку с бандой подростков.
Режиссер: Владимир Роговой
Актеры: Владимир Летенков, Станислав Жданько, Валентина Ананьина, Вера Васильева, Любовь Германова, Станислав Житарев, Ирина Калистратова, Леонид Каюров, Юрий Кузьменков, Юрий Медведев, Николай Муравьев, Надежда Румянцева, Александр Донец
Продолжительность: 01:21:58

Видеокодек: Xvid
Битрейт видео: ~2185 kb/s
Размер кадра: 688 x 328
Качество видео: DVDRip
Аудиокодек: AC3 2.0
Битрейт аудио: 192 kb/s

Обложка

 

MediaInfo

Общее
Полное имя : Несовершеннолетние_1976.Xvid.DVDRip.avi
Формат : AVI
Формат/Информация : Audio Video Interleave
Размер файла : 1,37 Гбайт
Продолжительность : 1 ч. 21 м.
Общий поток : 2388 Кбит/сек
Программа кодирования : VirtualDubMod 1.5.10.2 (build 2540/release)
Библиотека кодирования : VirtualDubMod build 2540/release
Видео
Идентификатор : 0
Формат : MPEG-4 Visual
Профиль формата : Advanced [email protected]
Параметр BVOP формата : 3
Параметр QPel формата : Нет
Параметр GMC формата : Без точки перехода
Параметр матрицы формата : Default (H.263)
Идентификатор кодека : XVID
Идентификатор кодека/Подсказка : XviD
Продолжительность : 1 ч. 21 м.
Битрейт : 2186 Кбит/сек
Ширина : 688 пикселей
Высота : 328 пикселей
Соотношение сторон : 2,098
Частота кадров : 25,000 кадров/сек
Цветовое пространство : YUV
Субдискретизация насыщенности : 4:2:0
Битовая глубина : 8 бит
Тип развёртки : Прогрессивная
Метод сжатия : С потерями
Бит/(Пиксели*Кадры) : 0.387
Размер потока : 1,25 Гбайт (92%)
Библиотека кодирования : XviD 1.2.1 (UTC 2008-12-04)
Аудио
Идентификатор : 1
Формат : AC-3
Формат/Информация : Audio Coding 3
Расширение режима : CM (complete main)
Параметр Endianness формата : Big
Идентификатор кодека : 2000
Продолжительность : 1 ч. 21 м.
Вид битрейта : Постоянный
Битрейт : 192 Кбит/сек
Каналы : 2 канала
Расположение каналов : Front: L R
Частота : 48,0 КГц
Битовая глубина : 16 бит
Метод сжатия : С потерями
Размер потока : 113 Мбайт (8%)
Выравнивание : Соединение по промежуткам
Продолжительность промежутка : 40 мс. (1,00 видеокадр)
Время предзагрузки промежутка : 512 мс.
Скриншоты:          Время раздачи: С 13:00 до 21:00 (до 5 скачавших)Приятного просмотра!
Вне форума [Профиль] [ЛС]
Показать сообщения:    
Ответить на тему

Текущее время: Сегодня 23:25

Часовой пояс: GMT + 3



Вы не можете начинать темы
Вы не можете отвечать на сообщения
Вы не можете редактировать свои сообщения
Вы не можете удалять свои сообщения
Вы не можете голосовать в опросах
Вы не можете прикреплять файлы к сообщениям
Вы не можете скачивать файлы