Сегодня идет свободное скачивание без начисления Download

Поколение победителей (1936) SATRip

Ответить на тему
 
Автор
Сообщение

Omen ®

Стаж: 6 лет

Сообщений: 184329

Торрент-статистика

Пост 13-Янв-2013 10:25

[Цитировать]

-Поколение победителей (1936) SATRip- Русское название: Поколение победителей
Год выпуска: 1936
Жанр: Драма, историко-революционный фильм
Описание фильма:
Фильм охватывает события 1896-1905 годов - от первых революционных сходок до вооруженного восстания московских рабочих на Красной Пресне. Петербургские студенты Александр Михайлов и Евгений Светлов, крестьянская девушка Варвара Постникова, приехав в Москву, проходят сложный путь революционеров-подпольщиков.
Режиссер: Вера Строева
Актеры: Борис Щукин, Николай Хмелев, Ксения Тарасова, Вера Марецкая, Николай Плотников, Владимир Канделаки, Мария Синельникова, Владимир Соловьёв, Георгий Черноволенко, А. Трушин, Анатолий Горюнов, Осип Абдулов
Продолжительность: 01:43:56

Видеокодек: Xvid
Битрейт видео: ~1961 Кбит/сек
Размер кадра: 720x544
Качество видео: SATRip
Аудиокодек: MP3, 2 ch
Битрейт аудио: 128 Кбит/сек

MediaInfo:

Общее
Полное имя : G:\new 092012\!102\Поколение победителей\Поколение победителей.avi
Формат : AVI
Формат/Информация : Audio Video Interleave
Размер файла : 1,52 Гбайт
Продолжительность : 1 ч. 43 м.
Общий поток : 2099 Кбит/сек
Программа кодирования : VirtualDubMod 1.5.10.1 Рус от Stvens Inc.™ www.stvens.amillo.net (build 2366/release)
Библиотека кодирования : Boilsoft AVI tool build 30012/release
Видео
Идентификатор : 0
Формат : MPEG-4 Visual
Параметр BVOP формата : 1
Параметр QPel формата : Нет
Параметр GMC формата : Без точки перехода
Параметр матрицы формата : Default (H.263)
Идентификатор кодека : DX50
Идентификатор кодека/Подсказка : DivX 5
Продолжительность : 1 ч. 43 м.
Битрейт : 1961 Кбит/сек
Ширина : 720 пикселей
Высота : 544 пикселя
Соотношение сторон : 4:3
Частота кадров : 25,000 кадров/сек
Цветовое пространство : YUV
Субдискретизация насыщенности : 4:2:0
Битовая глубина : 8 бит
Тип развёртки : Прогрессивная
Метод сжатия : С потерями
Бит/(Пиксели*Кадры) : 0.200
Размер потока : 1,42 Гбайт (93%)
Библиотека кодирования : DivX 1328m
Аудио
Идентификатор : 1
Формат : MPEG Audio
Версия формата : Version 1
Профиль формата : Layer 3
Режим : Joint stereo
Расширение режима : MS Stereo
Идентификатор кодека : 55
Идентификатор кодека/Подсказка : MP3
Продолжительность : 1 ч. 43 м.
Вид битрейта : Постоянный
Битрейт : 128 Кбит/сек
Каналы : 2 канала
Частота : 48,0 КГц
Метод сжатия : С потерями
Размер потока : 95,2 Мбайт (6%)
Выравнивание : Соединение по промежуткам
Продолжительность промежутка : 40 мс. (1,00 видеокадр)
Время предзагрузки промежутка : 504 мс.
Библиотека кодирования : LAME3.97
Скриншоты:
         
         
Время раздачи: С 09:00 до 23:00
Вне форума [Профиль] [ЛС]
Показать сообщения:    
Ответить на тему

Текущее время: Сегодня 19:55

Часовой пояс: GMT + 3



Вы не можете начинать темы
Вы не можете отвечать на сообщения
Вы не можете редактировать свои сообщения
Вы не можете удалять свои сообщения
Вы не можете голосовать в опросах
Вы не можете прикреплять файлы к сообщениям
Вы не можете скачивать файлы