Сегодня идет свободное скачивание без начисления Download

Завтра будет поздно (1972) DVBRip

Ответить на тему
 
Автор
Сообщение

Omen ®

Стаж: 6 лет

Сообщений: 184329

Торрент-статистика

Пост 13-Янв-2013 10:25

[Цитировать]

-Завтра будет поздно (1972)DVBRip - Русское название: Завтра будет поздно
Год выпуска: 1972
Страна: СССР, ЧССР
Жанр: Военный, Драма
Описание фильма:
Памяти Яна Налепки, национального героя Чехословакии, Героя Советского Союза, и многих других борцов, отдавших жизнь за свободу братских народов. 1943 год. Капитану Яну Налепке, начальнику штаба словацкого полка, несущего охрану военных объектов в районе небольшого белорусского городка, удается установить связь с партизанами. Используя полученные сведения о предстоящих операциях немецких войск, партизаны громят крупные силы немцев. Яна предупреждают, что гестаповец Гарнер подозревает его в сотрудничестве с партизанами, и его жизнь в опасности...
Режиссер: Мартин Тапак, Александр Карпов
Актеры: Милан Княжко, Нонна Мордюкова, Евгения Ветлова, Фёдор Шмаков, Олдо Гловачек, Михал Дочоломанский, Иозеф Будский, Микулаш Хуба, Валентин Белохвостик, Игорь Комаров, Виктор Шрамченко, Вадим Ганшин, Юрай Сарваш, Иван Райниак, Антон Мрвечка, Бронислав Крижан, Павел Кормунин, Харий Швейц, Николай Мерзликин, Улдис Лиелдидж, Йозеф Майерчик, Йозеф Кронер, Ярослав Дюречек, Юрай Ковач, Майя Булгакова

Продолжительность: 01:28:29

Доп. информация: Запись потока со спутника EUTELSAT
Видеокодек: MPEG Video 2
Битрейт видео: ~ 1509 Кбит/сек
Размер кадра: 544x576 (4:3, анаморф)@768x576
Качество видео: DVB
Аудиокодек: MP2, 2ch
Битрейт аудио: ~192.00 kbps

MI

Общее
Полное имя : C:\Users\1\Downloads\Завтра будет поздно.mpg
Формат : MPEG-PS
Размер файла : 1,07 Гбайт
Продолжительность : 1 ч. 28 м.
Режим общего битрейта : Переменный
Общий поток : 1736 Кбит/сек
Видео
Идентификатор : 224 (0xE0)
Формат : MPEG Video
Версия формата : Version 2
Профиль формата : [email protected]
Параметр BVOP формата : Да
Параметр матрицы формата : Выборочная
Продолжительность : 1 ч. 28 м.
Вид битрейта : Переменный
Битрейт : 1509 Кбит/сек
Максимальный битрейт : 15,0 Мбит/сек
Ширина : 544 пикселя
Высота : 576 пикселей
Соотношение сторон : 4:3
Частота кадров : 25,000 кадров/сек
Цветовое пространство : YUV
Субдискретизация насыщенности : 4:2:0
Битовая глубина : 8 бит
Метод сжатия : С потерями
Бит/(Пиксели*Кадры) : 0.193
Размер потока : 955 Мбайт (87%)
Аудио
Идентификатор : 192 (0xC0)
Формат : MPEG Audio
Версия формата : Version 1
Профиль формата : Layer 2
Продолжительность : 1 ч. 28 м.
Вид битрейта : Постоянный
Битрейт : 192 Кбит/сек
Каналы : 2 канала
Частота : 48,0 КГц
Метод сжатия : С потерями
Размер потока : 122 Мбайт (11%)
Скриншоты:
       
       
Время раздачи: 24/7 [url=/forum/tracker.php?pid=2645571]МОИ РЕЛИЗЫ[/url]
Вне форума [Профиль] [ЛС]
Показать сообщения:    
Ответить на тему

Текущее время: Сегодня 15:05

Часовой пояс: GMT + 3



Вы не можете начинать темы
Вы не можете отвечать на сообщения
Вы не можете редактировать свои сообщения
Вы не можете удалять свои сообщения
Вы не можете голосовать в опросах
Вы не можете прикреплять файлы к сообщениям
Вы не можете скачивать файлы