Сегодня идет свободное скачивание без начисления Download

Деревенская история (1981) DVBRip

Ответить на тему
 
Автор
Сообщение

Omen ®

Стаж: 5 лет 10 месяцев

Сообщений: 184329

Торрент-статистика

Пост 13-Янв-2013 10:25

[Цитировать]

-Деревенская история (1981) DVBRip- Русское название: Деревенская история
Год выпуска: 1981
Жанр: Киноповесть
Описание фильма:
Молодой тракторист Гриша Горелов вернулся из города в родную деревню. Здесь он нашел друзей и любимую женщину. Однако разгорелся нешуточный конфликт с председателем колхоза Захаром Акимычем, готовым отдать на сторону большой участок пахотной земли… В сложный узел затягивается судьба главного героя, мечтающего о счастье тружеников своего села. Он уверен в том, что нет ничего важнее засеянной вовремя земли, которая даст урожай и накормит каждого…
Режиссер: Виталий Каневский
Актеры: Сергей Проханов, Елена Соловей, Виктор Павлов, Александр Анисимов, Олег Штефанко, Ефим Каменецкий, Игорь Комаров
Продолжительность: 01:19:26

Видеокодек: MPEG-2
Битрейт видео: ~4075 kb/s
Размер кадра: 720 x 528
Качество видео: DVBRip
Аудиокодек: MP2, 2 ch
Битрейт аудио: 192 kb/s

MediaInfo

Общее
Полное имя : Derevenskaja_istorija.mpg
Формат : MPEG-PS
Размер файла : 2,41 Гбайт
Продолжительность : 1 ч. 19 м.
Режим общего битрейта : Переменный
Общий поток : 4354 Кбит/сек
Библиотека кодирования : (c) 1998-2011 Womble Multimedia, Inc. / MPEG Video Wizard DVD 5.0.1.100 (03/2011) / May 27 2011
Видео
Идентификатор : 224 (0xE0)
Формат : MPEG Video
Версия формата : Version 2
Профиль формата : [email protected]
Параметр BVOP формата : Нет
Параметр матрицы формата : Выборочная
Параметр GOP формата : Variable
Продолжительность : 1 ч. 19 м.
Вид битрейта : Переменный
Битрейт : 4075 Кбит/сек
Максимальный битрейт : 15,0 Мбит/сек
Ширина : 720 пикселей
Высота : 576 пикселей
Соотношение сторон : 4:3
Частота кадров : 25,000 кадров/сек
Стандарт вещания : PAL
Цветовое пространство : YUV
Субдискретизация насыщенности : 4:2:0
Битовая глубина : 8 бит
Тип развёртки : Прогрессивная
Порядок развёртки : Верхнее поле первое
Метод сжатия : С потерями
Бит/(Пиксели*Кадры) : 0.393
Размер потока : 2,26 Гбайт (94%)
Выравнивание : (c) 1998-2011 Womble Multimedia, Inc. / MPEG Video Wizard DVD 5.0.1.100 (03/2011) / May 27 2011
Заголовок : (c) 1998-2011 Womble Multimedia, Inc. / MPEG Video Wizard DVD 5.0.1.100 (03/2011) / May 27 2011
Библиотека кодирования : (c) 1998-2011 Womble Multimedia, Inc. / MPEG Video Wizard DVD 5.0.1.100 (03/2011) / May 27 2011
Аудио
Идентификатор : 192 (0xC0)
Формат : MPEG Audio
Версия формата : Version 1
Профиль формата : Layer 2
Продолжительность : 1 ч. 19 м.
Вид битрейта : Постоянный
Битрейт : 192 Кбит/сек
Каналы : 2 канала
Частота : 48,0 КГц
Метод сжатия : С потерями
Размер потока : 109 Мбайт (4%)
Меню
Скриншоты:          Время раздачи: С 13:00 до 21:00 (до 5 скачавших)Приятного просмотра!
Вне форума [Профиль] [ЛС]
Похожие темы
Форум Тема Автор Торрент Отв. Посл. сообщение
./templates/default/images/folder_dl.gif Ролики, сайт рипы Деревенская сисястая девка Олечка пробует в жопку[ MyTeenVideo.com, teen, all sex, oral, facial, anal, WEB-DLRip, 2006 ][Олечка] XP1971
1 | 0

0 | 7832

41

2017-06-05 20:19
XP1971 Последнее
./templates/default/images/folder_dl.gif Ролики, сайт рипы Деревенская сисястая девка Олечка[ MyTeenVideo.com, teen, all sex, oral, facial, WEB-DLRip, 2006 ][Олечка] XP1971
1 | 0

0 | 8280

38

2017-06-05 20:20
XP1971 Последнее
Показать сообщения:    
Ответить на тему

Текущее время: Сегодня 14:55

Часовой пояс: GMT + 3



Вы не можете начинать темы
Вы не можете отвечать на сообщения
Вы не можете редактировать свои сообщения
Вы не можете удалять свои сообщения
Вы не можете голосовать в опросах
Вы не можете прикреплять файлы к сообщениям
Вы не можете скачивать файлы