Сегодня идет свободное скачивание без начисления Download

Небо – земля (1979) SATRip

Ответить на тему
 
Автор
Сообщение

Omen ®

Стаж: 6 лет

Сообщений: 184329

Торрент-статистика

Пост 13-Янв-2013 10:25

[Цитировать]

-Небо – земля (1979) SATRip- Русское название: Небо – земля
Год выпуска: 1979
Жанр: Телеспектакль
Производство: Центральное телевидение СССР
Описание фильма:
По одноименной пьесе Аркадия Пинчука в постановке Государственного академического театра имени Моссовета.
О жизни военных летчиков, их дружбе, преданности своей профессии. В основе сюжета - перевод авиационного полка из небольшого городка в Заполярье.
Режиссер: Инна Данкман
Актеры: Михаил Львов, Ирина Соколова, Лариса Наумкина, Николай Лебедев, Анна Касенкина, Владимир Шурупов, Ирина Квитинская, Александр Леньков, Вячеслав Бутенко, Нелли Пшенная, Сергей Проханов, Инна Аленикова, Леонид Сенченко
Продолжительность: 01:47:00
Видеокодек: Xvid
Битрейт видео: ~1800 kb/s
Размер кадра: 688 x 512
Качество видео: SATRip
Аудиокодек: MP3, 2 ch
Битрейт аудио: 128 kb/s

MediaInfo

Общее
Полное имя : nebo.zemlja.1979.avi
Формат : AVI
Формат/Информация : Audio Video Interleave
Размер файла : 1,45 Гбайт
Продолжительность : 1 ч. 47 м.
Общий поток : 1937 Кбит/сек
Режиссёр : SATrip by Animat
Программа кодирования : VirtualDubMod 1.5.10.2 (build 2540/release)
Библиотека кодирования : VirtualDubMod build 2540/release
Видео
Идентификатор : 0
Формат : MPEG-4 Visual
Профиль формата : Advanced [email protected]
Параметр BVOP формата : 2
Параметр QPel формата : Нет
Параметр GMC формата : Без точки перехода
Параметр матрицы формата : Default (MPEG)
Режим смешивания : Сжатый битовый поток
Идентификатор кодека : XVID
Идентификатор кодека/Подсказка : XviD
Продолжительность : 1 ч. 47 м.
Битрейт : 1800 Кбит/сек
Ширина : 688 пикселей
Высота : 512 пикселей
Соотношение сторон : 4:3
Частота кадров : 25,000 кадров/сек
Цветовое пространство : YUV
Субдискретизация насыщенности : 4:2:0
Битовая глубина : 8 бит
Тип развёртки : Прогрессивная
Метод сжатия : С потерями
Бит/(Пиксели*Кадры) : 0.204
Размер потока : 1,35 Гбайт (93%)
Библиотека кодирования : XviD 1.1.2 (UTC 2006-11-01)
Аудио
Идентификатор : 1
Формат : MPEG Audio
Версия формата : Version 1
Профиль формата : Layer 3
Режим : Joint stereo
Расширение режима : MS Stereo
Идентификатор кодека : 55
Идентификатор кодека/Подсказка : MP3
Продолжительность : 1 ч. 47 м.
Вид битрейта : Постоянный
Битрейт : 128 Кбит/сек
Каналы : 2 канала
Частота : 48,0 КГц
Метод сжатия : С потерями
Размер потока : 98,0 Мбайт (7%)
Выравнивание : Соединение по промежуткам
Продолжительность промежутка : 40 мс. (1,00 видеокадр)
Время предзагрузки промежутка : 504 мс.
Скриншоты:          Время раздачи: С 13:00 до 21:00 (до 5 скачавших)Приятного просмотра!
Вне форума [Профиль] [ЛС]
Показать сообщения:    
Ответить на тему

Текущее время: Сегодня 15:48

Часовой пояс: GMT + 3



Вы не можете начинать темы
Вы не можете отвечать на сообщения
Вы не можете редактировать свои сообщения
Вы не можете удалять свои сообщения
Вы не можете голосовать в опросах
Вы не можете прикреплять файлы к сообщениям
Вы не можете скачивать файлы