Сегодня идет свободное скачивание без начисления Download

Сегодня – новый аттракцион (1965) DVDRip

Ответить на тему
 
Автор
Сообщение

Omen ®

Стаж: 6 лет 1 месяц

Сообщений: 184308

Торрент-статистика

Пост 13-Янв-2013 10:25

[Цитировать]

-Сегодня – новый аттракцион (1965) DVDRip- Русское название: Сегодня – новый аттракцион
Год выпуска: 1965
Жанр: Комедия
Описание фильма:
Замечательный и забытый фильм с Фаиной Раневской: Директор цирка уговаривает укротителя Марата не выступать с новым номером самому, а передать его своей жене Вале. Номер оказывается успешным, и Валя становится «звездой» цирка.
Режиссер: Надежда Кошеверова, Аполлинарий Дудко
Актеры: Отар Коберидзе, Марина Полбенцева, Игорь Горбачев, Фаина Раневская, Владимир Татосов, Павел Суханов, Михаил Глузский, Лев Лемке, Гелий Сысоев, Михаил Иванов

Продолжительность: 01:29:06

Видеокодек: DivX 4/5/6
Битрейт видео: ~960 kbps avg
Размер кадра: 656x320
Качество видео: DVDRip
Аудиокодек: MP3, 2ch
Битрейт аудио: ~128.00 kbps

MI

Общее
Полное имя : G:\фильмы\Segodnja_noviy_attrakcion.avi
Формат : AVI
Формат/Информация : Audio Video Interleave
Размер файла : 700 Мбайт
Продолжительность : 1 ч. 29 м.
Общий поток : 1098 Кбит/сек
Программа кодирования : VirtualDubModRus 1.5.10.2 (build 2542/release)
Библиотека кодирования : VirtualDubMod build 2542/release
Видео
Идентификатор : 0
Формат : MPEG-4 Visual
Параметр BVOP формата : 1
Параметр QPel формата : Нет
Параметр GMC формата : Без точки перехода
Параметр матрицы формата : Default (H.263)
Режим смешивания : Сжатый битовый поток
Идентификатор кодека : DX50
Идентификатор кодека/Подсказка : DivX 5
Продолжительность : 1 ч. 29 м.
Битрейт : 960 Кбит/сек
Ширина : 656 пикселей
Высота : 320 пикселей
Соотношение сторон : 2,050
Частота кадров : 25,000 кадров/сек
Цветовое пространство : YUV
Субдискретизация насыщенности : 4:2:0
Битовая глубина : 8 бит
Тип развёртки : Прогрессивная
Метод сжатия : С потерями
Бит/(Пиксели*Кадры) : 0.183
Размер потока : 612 Мбайт (87%)
Библиотека кодирования : DivX 6.8.3-6.8.4 (UTC 2008-06-07)
Аудио
Идентификатор : 1
Формат : MPEG Audio
Версия формата : Version 1
Профиль формата : Layer 3
Режим : Joint stereo
Расширение режима : MS Stereo
Идентификатор кодека : 55
Идентификатор кодека/Подсказка : MP3
Продолжительность : 1 ч. 29 м.
Вид битрейта : Постоянный
Битрейт : 128 Кбит/сек
Каналы : 2 канала
Частота : 48,0 КГц
Метод сжатия : С потерями
Размер потока : 81,6 Мбайт (12%)
Выравнивание : Соединение по промежуткам
Продолжительность промежутка : 40 мс. (1,00 видеокадр)
Время предзагрузки промежутка : 504 мс.
Библиотека кодирования : LAME3.97
Настройки программы : -m j -V 4 -q 1 -b 128
Скриншоты:
       
Время раздачи: 24/7 [url=/forum/tracker.php?pid=2645571]МОИ РЕЛИЗЫ[/url]
Вне форума [Профиль] [ЛС]
Показать сообщения:    
Ответить на тему

Текущее время: Сегодня 16:08

Часовой пояс: GMT + 3



Вы не можете начинать темы
Вы не можете отвечать на сообщения
Вы не можете редактировать свои сообщения
Вы не можете удалять свои сообщения
Вы не можете голосовать в опросах
Вы не можете прикреплять файлы к сообщениям
Вы не можете скачивать файлы