Today is a free download without charge Download

Расколотое небо (3 серии) (1979) SATRip

Reply to topic
 
Author
Message

Omen ®

Longevity: 6 years 5 months

Posts: 181112

Торрент-статистика

Post 13-Jan-2013 10:25

[Quote]

-Расколотое небо (1979) SATRip- Русское название: Расколотое небо
Год выпуска: 1979
Жанр: Военный, Драма
Выпущено: Киностудия им. А. Довженко, СССР
Описание фильма:
По одноименному роману А. Галиева.
1918 год. Группа русских авиаторов, обучавшихся летному делу во Франции, возвращается в Россию и присоединяется к белогвардейскому отряду. Однако двое летчиков вскоре переходят на сторону революции и сражаются в составе первого авиационного подразделения Красной Армии...
Режиссер: Анатолий Иванов
Актеры: Юрий Тышлер, Аристарх Ливанов, Сергей Никоненко, Антонина Лефтий, Эрнст Романов, Юрий Мочалов, Дмитрий Миргородский, Алла Сигалова, Баадур Цуладзе, Афанасий Тришкин, Юрий Рудченко, Федор Панасенко, Вадим Ильенко, А. Вовченко, Юрий Дубровин, Абессалом Лория, Виктор Мирошниченко, Николай Олейник, Ляля Чёрная, Екатерина Воронина, В. Белый, Виктор Демерташ, Леонид Яновский, Иван Матвеев, Юрий Смирнов, Александр Заднепровский, Юрий Назаров, А. Григорян, А. Пожидаев, М. Яковчук, А. Козлов, Сергей Нечаев, В. Ильницкий, Сергей Шварцзойд, Владимир Шныпарь, Евгений Галушко, В. Дубовой, Олег Горбаченко, Л. Дмитриченко, А. Новиков, Виктор Шкурин, Владимир Волков, Александр Денисов, Сергей Шеметило, Наталия Гебдовская, Валентин Дуклер, Галина Мочалова
Продолжительность: 01:01:59 + 01:03:50 + 01:03:25

Видеокодек: Xvid
Битрейт видео: ~2099 kb/s
Размер кадра: 720 x 544
Качество видео: SATRip
Аудиокодек: MP3, 2 ch
Битрейт аудио: 192 kb/s

MediaInfo

1 серия

Общее
Полное имя : \Расколотое небо.1979.SATRip\серия.01.avi
Формат : AVI
Формат/Информация : Audio Video Interleave
Размер файла : 1022 Мбайт
Продолжительность : 1 ч. 1 м.
Общий поток : 2305 Кбит/сек
Программа кодирования : XviD4PSP 6.0 / 54.29.105
Видео
Идентификатор : 0
Формат : MPEG-4 Visual
Профиль формата : Advanced [email protected]
Параметр BVOP формата : 1
Параметр QPel формата : Нет
Параметр GMC формата : Без точки перехода
Параметр матрицы формата : Default (H.263)
Идентификатор кодека : XVID
Идентификатор кодека/Подсказка : XviD
Продолжительность : 1 ч. 1 м.
Битрейт : 2100 Кбит/сек
Ширина : 720 пикселей
Высота : 544 пикселя
Соотношение сторон : 4:3
Частота кадров : 25,000 кадров/сек
Цветовое пространство : YUV
Субдискретизация насыщенности : 4:2:0
Битовая глубина : 8 бит
Тип развёртки : Прогрессивная
Метод сжатия : С потерями
Бит/(Пиксели*Кадры) : 0.214
Размер потока : 931 Мбайт (91%)
Библиотека кодирования : XviD 64
Аудио
Идентификатор : 1
Формат : MPEG Audio
Версия формата : Version 1
Профиль формата : Layer 3
Режим : Joint stereo
Идентификатор кодека : 55
Идентификатор кодека/Подсказка : MP3
Продолжительность : 1 ч. 1 м.
Вид битрейта : Постоянный
Битрейт : 192 Кбит/сек
Каналы : 2 канала
Частота : 48,0 КГц
Метод сжатия : С потерями
Размер потока : 85,1 Мбайт (8%)
Выравнивание : Соединение по промежуткам
Продолжительность промежутка : 24 мс. (0,60 видеокадр)
Библиотека кодирования : LAME3.99.4

2 серия

Общее
Полное имя : \Расколотое небо.1979.SATRip\серия.02.avi
Формат : AVI
Формат/Информация : Audio Video Interleave
Профиль формата : OpenDML
Размер файла : 1,03 Гбайт
Продолжительность : 1 ч. 3 м.
Общий поток : 2310 Кбит/сек
Программа кодирования : XviD4PSP 6.0 / 54.29.105
Видео
Идентификатор : 0
Формат : MPEG-4 Visual
Профиль формата : Advanced [email protected]
Параметр BVOP формата : 1
Параметр QPel формата : Нет
Параметр GMC формата : Без точки перехода
Параметр матрицы формата : Default (H.263)
Идентификатор кодека : XVID
Идентификатор кодека/Подсказка : XviD
Продолжительность : 1 ч. 3 м.
Битрейт : 2101 Кбит/сек
Ширина : 720 пикселей
Высота : 544 пикселя
Соотношение сторон : 4:3
Частота кадров : 25,000 кадров/сек
Цветовое пространство : YUV
Субдискретизация насыщенности : 4:2:0
Битовая глубина : 8 бит
Тип развёртки : Прогрессивная
Метод сжатия : С потерями
Бит/(Пиксели*Кадры) : 0.215
Размер потока : 960 Мбайт (91%)
Библиотека кодирования : XviD 64
Аудио
Идентификатор : 1
Формат : MPEG Audio
Версия формата : Version 1
Профиль формата : Layer 3
Режим : Joint stereo
Расширение режима : MS Stereo
Идентификатор кодека : 55
Идентификатор кодека/Подсказка : MP3
Продолжительность : 1 ч. 3 м.
Вид битрейта : Постоянный
Битрейт : 192 Кбит/сек
Каналы : 2 канала
Частота : 48,0 КГц
Метод сжатия : С потерями
Размер потока : 87,7 Мбайт (8%)
Выравнивание : Соединение по промежуткам
Продолжительность промежутка : 24 мс. (0,60 видеокадр)
Библиотека кодирования : LAME3.99%yHVS$‘d Оф±

3 серия

Общее
Полное имя : \Расколотое небо.1979.SATRip\серия.03.avi
Формат : AVI
Формат/Информация : Audio Video Interleave
Профиль формата : OpenDML
Размер файла : 1,02 Гбайт
Продолжительность : 1 ч. 3 м.
Общий поток : 2310 Кбит/сек
Программа кодирования : XviD4PSP 6.0 / 54.29.105
Видео
Идентификатор : 0
Формат : MPEG-4 Visual
Профиль формата : Advanced [email protected]
Параметр BVOP формата : 1
Параметр QPel формата : Нет
Параметр GMC формата : Без точки перехода
Параметр матрицы формата : Default (H.263)
Идентификатор кодека : XVID
Идентификатор кодека/Подсказка : XviD
Продолжительность : 1 ч. 3 м.
Битрейт : 2101 Кбит/сек
Ширина : 720 пикселей
Высота : 544 пикселя
Соотношение сторон : 4:3
Частота кадров : 25,000 кадров/сек
Цветовое пространство : YUV
Субдискретизация насыщенности : 4:2:0
Битовая глубина : 8 бит
Тип развёртки : Прогрессивная
Метод сжатия : С потерями
Бит/(Пиксели*Кадры) : 0.215
Размер потока : 953 Мбайт (91%)
Библиотека кодирования : XviD 64
Аудио
Идентификатор : 1
Формат : MPEG Audio
Версия формата : Version 1
Профиль формата : Layer 3
Режим : Joint stereo
Идентификатор кодека : 55
Идентификатор кодека/Подсказка : MP3
Продолжительность : 1 ч. 3 м.
Вид битрейта : Постоянный
Битрейт : 192 Кбит/сек
Каналы : 2 канала
Частота : 48,0 КГц
Метод сжатия : С потерями
Размер потока : 87,1 Мбайт (8%)
Выравнивание : Соединение по промежуткам
Продолжительность промежутка : 24 мс. (0,60 видеокадр)
Библиотека кодирования : LAME3.99.4
Скриншоты:          Время раздачи: С 13:00 до 21:00 (до 5 скачавших)Приятного просмотра!
Other forum [Profile] [PM]
Similar theme
Forum Topic Author Torrent Replies Last Post
./templates/default/images/folder_dl.gif Медицина и Здоровье Сергей Агапкин | Не дай голове расколоться! Упражнения, которые возвращают жизнь без головной боли (2019) [PDF] }{@R0N
1 | 0

0 | 292

0

2019-03-27 23:37
}{@R0N Latest
Display posts from previous:    
Reply to topic

The time now is: Today 13:28

All times are GMT + 3 Hours



You cannot post new topics in this forum
You cannot reply to topics in this forum
You cannot edit your posts in this forum
You cannot delete your posts in this forum
You cannot vote in polls in this forum
You cannot attach files in this forum
You cannot download files in this forum