Today is a free download without charge Download

Следы на снегу (1955) TVRip

Reply to topic
 
Author
Message

Omen ®

Longevity: 6 years 5 months

Posts: 181112

Торрент-статистика

Post 13-Jan-2013 10:25

[Quote]

-Следы на снегу (1955) TVRip- Русское название: Следы на снегу
Год выпуска: 1955
Производство: Ленфильм
Жанр: Приключения, Детектив
Перевод: Отсутствует
Дата российской премьеры: 24 октября 1955
Режиссер: Адольф Бергункер
Актеры: Владимир Гусев , Владимир Краснопольский , Евгения Тэн, Константин Адашевский, Содном Будажапов, Георгий Гумилевский, Олег Жаков, Михаил Медведев, Антс Эскола, Зинаида Занони, Борис Лескин, Александр Борисов
Описание фильма:
Послевоенные годы. Якут-охотник Быкадыров обнаруживает в тайге таинственные следы, ведущие в поселок, где только что совершено убийство начальника геологической экспедиции. Для расследования преступления из Москвы приезжает группа сотрудников государственной безопасности. Боясь разоблачения, диверсанты бегут из поселка. Оперативной группе удается задержать убийц и экипаж прилетевшего за ними самолета.

Продолжительность: 01:16:46
Качество видео: TVRip
Видеокодек: Xvid
Битрейт видео: ~ 1 801 Кбит/с
Размер кадра: 704x528
Аудиокодек: AC3 , 2 ch
Битрейт аудио: 192 Кбит/с

Info:

General
Complete name : D:\Наше кино\Следы на снегу.avi
Format : AVI
Format/Info : Audio Video Interleave
File size : 1.07 GiB
Duration : 1h 16mn
Overall bit rate : 2 002 Kbps
Writing application : VirtualDubMod 1.5.10.3 | www.virtualdub-fr.org || (build 2550/release)
Writing library : VirtualDubMod build 2550/release
Video
ID : 0
Format : MPEG-4 Visual
Format profile : Advanced [email protected]
Format settings, BVOP : 2
Format settings, QPel : No
Format settings, GMC : No warppoints
Format settings, Matrix : Default (MPEG)
Codec ID : XVID
Codec ID/Hint : XviD
Duration : 1h 16mn
Bit rate : 1 801 Kbps
Width : 704 pixels
Height : 528 pixels
Display aspect ratio : 4:3
Frame rate : 25.000 fps
Color space : YUV
Chroma subsampling : 4:2:0
Bit depth : 8 bits
Scan type : Progressive
Compression mode : Lossy
Bits/(Pixel*Frame) : 0.194
Stream size : 989 MiB (90%)
Writing library : XviD 1.2.1 (UTC 2008-12-04)
Audio
ID : 1
Format : AC-3
Format/Info : Audio Coding 3
Mode extension : CM (complete main)
Codec ID : 2000
Duration : 1h 16mn
Bit rate mode : Constant
Bit rate : 192 Kbps
Channel(s) : 2 channels
Channel positions : Front: L R
Sampling rate : 48.0 KHz
Bit depth : 16 bits
Compression mode : Lossy
Stream size : 105 MiB (10%)
Alignment : Split accross interleaves
Interleave, duration : 40 ms (1.00 video frame)
Interleave, preload duration : 500 ms
Скриншоты:
           
Время раздачи: с 17-23
Other forum [Profile] [PM]
Display posts from previous:    
Reply to topic

The time now is: Today 15:37

All times are GMT + 3 Hours



You cannot post new topics in this forum
You cannot reply to topics in this forum
You cannot edit your posts in this forum
You cannot delete your posts in this forum
You cannot vote in polls in this forum
You cannot attach files in this forum
You cannot download files in this forum