Сегодня идет свободное скачивание без начисления Download

Дума о Ковпаке. Карпаты, Карпаты... (1979) DVDRip

Ответить на тему
 
Автор
Сообщение

Omen ®

Стаж: 5 лет 10 месяцев

Сообщений: 184329

Торрент-статистика

Пост 13-Янв-2013 10:25

[Цитировать]

-Дума о Ковпаке. Карпаты, Карпаты... (1979) DVDRip- Русское название: Дума о Ковпаке. Карпаты, Карпаты...
Год выпуска: 1979
Жанр: Военный, Драма
Описание фильма:
Третий фильм трилогии "Дума о Ковпаке" ("Набат", "Буран", "Карпаты, Карпаты..."). 2-е части.Фильм об освободительном рейде партизанского соединения С.А.Ковпака летом 1943 года в Карпаты.
Режиссер: Тимофей Левчук
Актеры: Константин Степанков, Валентин Белохвостик, Николай Гринько, Юрий Саранцев, Михаил Голубович, Николай Шутько, Зураб Капианидзе, Владимир Антонов, Михаил Кокшенов, Николай Мерзликин, Евгений Жариков, Наталья Гвоздикова, Александр Мовчан, Александр Гай
Продолжительность: 02:24:30

Видеокодек: MPEG-4 AVC/H.264
Битрейт видео: ~2051 Кбит/сек
Размер кадра: 768x576
Качество видео: DVDRip
Аудиокодек: AC3 2.0
Битрейт аудио: 192 Кбит/сек

MediaInfo:

Общее
Уникальный идентификатор : 203923785349763451648517474283506160246 (0x996A4ADE8385767D858D8FC8CCC8D276)
Полное имя : G:\!V\Дума о Ковпаке\Дума о Ковпаке. Карпаты, Карпаты... (2 серии)\Дума о Ковпаке. Карпаты, Карпаты... DVDRip\Дума о Ковпаке. Карпаты, Карпаты... DVDRip.mkv
Формат : Matroska
Версия формата : Version 4 / Version 2
Размер файла : 2,31 Гбайт
Продолжительность : 2 ч. 24 м.
Общий поток : 2289 Кбит/сек
Дата кодирования : UTC 2010-02-22 21:41:31
Программа кодирования : mkvmerge v5.9.0 ('On The Loose') built on Dec 9 2012 15:37:01
Библиотека кодирования : libebml v1.3.0 + libmatroska v1.4.0
Видео
Идентификатор : 1
Формат : AVC
Формат/Информация : Advanced Video Codec
Профиль формата : [url=mailto:[email protected]][email protected][/url]
Параметр CABAC формата : Нет
Параметр ReFrames формата : 2 кадра
Параметр GOP формата : M=1, N=12
Режим смешивания : Header stripping
Идентификатор кодека : V_MPEG4/ISO/AVC
Продолжительность : 2 ч. 24 м.
Битрейт : 2051 Кбит/сек
Ширина : 768 пикселей
Высота : 576 пикселей
Соотношение сторон : 4:3
Режим частоты кадров : Постоянный
Частота кадров : 23,976 кадра/сек
Стандарт вещания : NTSC
Цветовое пространство : YUV
Субдискретизация насыщенности : 4:2:0
Битовая глубина : 8 бит
Тип развёртки : Прогрессивная
Бит/(Пиксели*Кадры) : 0.193
Размер потока : 2,07 Гбайт (90%)
Язык : Russian
Default : Да
Forced : Нет
Основные цвета : BT.601 NTSC
Характеристики трансфера : BT.601
Коэффициенты матрицы : BT.601
Аудио
Идентификатор : 2
Формат : AC-3
Формат/Информация : Audio Coding 3
Расширение режима : CM (complete main)
Параметр Endianness формата : Big
Режим смешивания : Header stripping
Идентификатор кодека : A_AC3
Продолжительность : 2 ч. 24 м.
Вид битрейта : Постоянный
Битрейт : 192 Кбит/сек
Каналы : 2 канала
Расположение каналов : Front: L R
Частота : 48,0 КГц
Битовая глубина : 16 бит
Метод сжатия : С потерями
Задержка видео : 2 мс.
Размер потока : 198 Мбайт (8%)
Язык : Russian
Default : Да
Forced : Нет
Скриншоты:
         
         
Время раздачи: С 09 до 23:00
Вне форума [Профиль] [ЛС]
Показать сообщения:    
Ответить на тему

Текущее время: Сегодня 04:43

Часовой пояс: GMT + 3



Вы не можете начинать темы
Вы не можете отвечать на сообщения
Вы не можете редактировать свои сообщения
Вы не можете удалять свои сообщения
Вы не можете голосовать в опросах
Вы не можете прикреплять файлы к сообщениям
Вы не можете скачивать файлы