Today is a free download without charge Download

Пока фронт в обороне (1964) SATRip

Reply to topic
 
Author
Message

Omen ®

Longevity: 6 years 5 months

Posts: 171875

Торрент-статистика

Post 13-Jan-2013 10:25

[Quote]

-Пока фронт в обороне (1964) SATRip- Русское название: Пока фронт в обороне
Год выпуска: 1964
Жанр: Военный, Драма
Описание фильма:
Волховский фронт 1942 года. Молодой политрук отдела контрпропаганды штаба дивизии Русанов рвется на передовую. Вместе с опытным воякой - капитаном Шатерниковым - герой добирается до передовой и ведет со звукопередвижки передачи, обращенные к немецким солдатам. А в часы затишья проходит по несколько километров ради того, чтобы увидеть Катю, связистку соседнего участка фронта...
Режиссер: Юлий Файт
Актеры: Игорь Косухин, Виктор Авдюшко, Светлана Светличная, Владимир Белокуров, Александр Демьяненко, Юрий Соловьёв, Андрей Файт, Геннадий Крашенинников, Александр Анисимов, Георгий Жжёнов, Александр Суснин, Николай Губенко
Продолжительность: 01:21:25

Видеокодек: MPEG-2
Битрейт видео: ~2473 Кбит/сек
Размер кадра: 768x576
Качество видео: SATRip
Аудиокодек: MP2, 2 ch
Битрейт аудио: 192 Кбит/сек

MediaInfo:

Общее
Полное имя : F:\1112\Пока фронт в обороне\Пока фронт в обороне.mpg
Формат : MPEG-PS
Размер файла : 1,55 Гбайт
Продолжительность : 1 ч. 21 м.
Режим общего битрейта : Переменный
Общий поток : 2719 Кбит/сек
Видео
Идентификатор : 224 (0xE0)
Формат : MPEG Video
Версия формата : Version 2
Профиль формата : [email protected] 1440
Параметр BVOP формата : Нет
Параметр матрицы формата : По умолчанию
Параметр GOP формата : N=12
Продолжительность : 1 ч. 21 м.
Вид битрейта : Переменный
Битрейт : 2473 Кбит/сек
Ширина : 768 пикселей
Высота : 576 пикселей
Соотношение сторон : 4:3
Частота кадров : 25,000 кадров/сек
Цветовое пространство : YUV
Субдискретизация насыщенности : 4:2:0
Битовая глубина : 8 бит
Тип развёртки : Прогрессивная
Метод сжатия : С потерями
Бит/(Пиксели*Кадры) : 0.224
Размер потока : 1,41 Гбайт (91%)
Аудио
Идентификатор : 192 (0xC0)
Формат : MPEG Audio
Версия формата : Version 1
Профиль формата : Layer 2
Продолжительность : 1 ч. 21 м.
Вид битрейта : Постоянный
Битрейт : 192 Кбит/сек
Каналы : 2 канала
Частота : 48,0 КГц
Метод сжатия : С потерями
Размер потока : 112 Мбайт (7%)
Скриншоты:
         
         
Время раздачи: С 09 до 23:00
Other forum [Profile] [PM]

Shuri33

Longevity: 4 years 11 months

Posts: 1

Торрент-статистика

Post 05-May-2014 12:20 (after 1 year 3 months)

[Quote]

Плиз встаньте на раздачу.
Other forum [Profile] [PM]
Display posts from previous:    
Reply to topic

The time now is: Today 05:17

All times are GMT + 3 Hours



You cannot post new topics in this forum
You cannot reply to topics in this forum
You cannot edit your posts in this forum
You cannot delete your posts in this forum
You cannot vote in polls in this forum
You cannot attach files in this forum
You cannot download files in this forum