Сегодня идет свободное скачивание без начисления Download

Пока фронт в обороне (1964) SATRip

Ответить на тему
 
Автор
Сообщение

Omen ®

Стаж: 5 лет 10 месяцев

Сообщений: 184329

Торрент-статистика

Пост 13-Янв-2013 10:25

[Цитировать]

-Пока фронт в обороне (1964) SATRip- Русское название: Пока фронт в обороне
Год выпуска: 1964
Жанр: Военный, Драма
Описание фильма:
Волховский фронт 1942 года. Молодой политрук отдела контрпропаганды штаба дивизии Русанов рвется на передовую. Вместе с опытным воякой - капитаном Шатерниковым - герой добирается до передовой и ведет со звукопередвижки передачи, обращенные к немецким солдатам. А в часы затишья проходит по несколько километров ради того, чтобы увидеть Катю, связистку соседнего участка фронта...
Режиссер: Юлий Файт
Актеры: Игорь Косухин, Виктор Авдюшко, Светлана Светличная, Владимир Белокуров, Александр Демьяненко, Юрий Соловьёв, Андрей Файт, Геннадий Крашенинников, Александр Анисимов, Георгий Жжёнов, Александр Суснин, Николай Губенко
Продолжительность: 01:21:25

Видеокодек: MPEG-2
Битрейт видео: ~2473 Кбит/сек
Размер кадра: 768x576
Качество видео: SATRip
Аудиокодек: MP2, 2 ch
Битрейт аудио: 192 Кбит/сек

MediaInfo:

Общее
Полное имя : F:\1112\Пока фронт в обороне\Пока фронт в обороне.mpg
Формат : MPEG-PS
Размер файла : 1,55 Гбайт
Продолжительность : 1 ч. 21 м.
Режим общего битрейта : Переменный
Общий поток : 2719 Кбит/сек
Видео
Идентификатор : 224 (0xE0)
Формат : MPEG Video
Версия формата : Version 2
Профиль формата : [email protected] 1440
Параметр BVOP формата : Нет
Параметр матрицы формата : По умолчанию
Параметр GOP формата : N=12
Продолжительность : 1 ч. 21 м.
Вид битрейта : Переменный
Битрейт : 2473 Кбит/сек
Ширина : 768 пикселей
Высота : 576 пикселей
Соотношение сторон : 4:3
Частота кадров : 25,000 кадров/сек
Цветовое пространство : YUV
Субдискретизация насыщенности : 4:2:0
Битовая глубина : 8 бит
Тип развёртки : Прогрессивная
Метод сжатия : С потерями
Бит/(Пиксели*Кадры) : 0.224
Размер потока : 1,41 Гбайт (91%)
Аудио
Идентификатор : 192 (0xC0)
Формат : MPEG Audio
Версия формата : Version 1
Профиль формата : Layer 2
Продолжительность : 1 ч. 21 м.
Вид битрейта : Постоянный
Битрейт : 192 Кбит/сек
Каналы : 2 канала
Частота : 48,0 КГц
Метод сжатия : С потерями
Размер потока : 112 Мбайт (7%)
Скриншоты:
         
         
Время раздачи: С 09 до 23:00
Вне форума [Профиль] [ЛС]

Shuri33

Стаж: 4 года 4 месяца

Сообщений: 1

Торрент-статистика

Пост 05-Май-2014 12:20 (спустя 1 год 3 месяца)

[Цитировать]

Плиз встаньте на раздачу.
Вне форума [Профиль] [ЛС]
Показать сообщения:    
Ответить на тему

Текущее время: Сегодня 02:01

Часовой пояс: GMT + 3



Вы не можете начинать темы
Вы не можете отвечать на сообщения
Вы не можете редактировать свои сообщения
Вы не можете удалять свои сообщения
Вы не можете голосовать в опросах
Вы не можете прикреплять файлы к сообщениям
Вы не можете скачивать файлы