Сегодня идет свободное скачивание без начисления Download

Красный велосипед (1979) SATRip

Ответить на тему
 
Автор
Сообщение

Omen ®

Стаж: 5 лет 10 месяцев

Сообщений: 184329

Торрент-статистика

Пост 13-Янв-2013 10:25

[Цитировать]

-Красный велосипед (1979) SATRip- Русское название: Красный велосипед
Год выпуска: 1979
Жанр: Комедия
Описание фильма:
1918 год. Несмотря на заключение мира между Советской Россией и Германией, на границе продолжаются провокации. В родную деревню возвращается солдат Якуб Коваленок. На ярмарке он пытается купить коня, готов отдать всё, что есть, даже предлагает окружающим купить у него гранату. Ее выхватывает какой-то паныч и убегает, оставив Якубу красный велосипед. В родной деревне Якуб узнает, что ему достался велосипед Стася Добужинского - связного банды Курневича, которую давно выслеживает отряд красноармейцев. Большевичка Алена узнает велосипед предателя и реквизирует его. Возмущенный таким беззаконием, Якуб решает добиться справедливости и пишет письмо с жалобой самому Ленину
Режиссер: Юрий Оксанченко
Актеры: Семен Морозов, Светлана Переладова, Людмила Дмитриева, Александр Аржиловский, Анатолий Равикович, Юрий Баталов, Лев Борисов, Женя Бородин, Александр Лебедев, Иван Сидоров, Александра Зимина, Тамара Муженко, Евгений Богданови Нина Розанцева, Анатолий Костецкий, Ростислав Шмырёв, Владимир Грицевский, Елена Матисова, Александр Беспалый, Александр Мельников, Станислав Вилькин, Стась Добужинский
Продолжительность: 01:05:57

Видеокодек: Xvid
Битрейт видео: ~1377 Кбит/сек
Размер кадра: 688x528
Качество видео: SATRip
Аудиокодек: MP3, 2 ch
Битрейт аудио: 192 Кбит/сек

MediaInfo:

Общее
Полное имя : G:\!V\Красный велосипед\Красный велосипед.avi
Формат : AVI
Формат/Информация : Audio Video Interleave
Размер файла : 744 Мбайт
Продолжительность : 1 ч. 5 м.
Общий поток : 1578 Кбит/сек
Программа кодирования : VirtualDubMod 1.5.10.2 (build 2540/release)
Библиотека кодирования : Boilsoft AVI tool build 30012/release
Видео
Идентификатор : 0
Формат : MPEG-4 Visual
Профиль формата : Advanced [email protected]
Параметр BVOP формата : 1
Параметр QPel формата : Нет
Параметр GMC формата : Без точки перехода
Параметр матрицы формата : Default (H.263)
Идентификатор кодека : XVID
Идентификатор кодека/Подсказка : XviD
Продолжительность : 1 ч. 5 м.
Битрейт : 1377 Кбит/сек
Ширина : 688 пикселей
Высота : 528 пикселей
Соотношение сторон : 4:3
Частота кадров : 25,000 кадров/сек
Цветовое пространство : YUV
Субдискретизация насыщенности : 4:2:0
Битовая глубина : 8 бит
Тип развёртки : Прогрессивная
Метод сжатия : С потерями
Бит/(Пиксели*Кадры) : 0.152
Размер потока : 649 Мбайт (87%)
Библиотека кодирования : XviD 1.2.1 (UTC 2008-12-04)
Аудио
Идентификатор : 1
Формат : MPEG Audio
Версия формата : Version 1
Профиль формата : Layer 3
Идентификатор кодека : 55
Идентификатор кодека/Подсказка : MP3
Продолжительность : 1 ч. 5 м.
Вид битрейта : Постоянный
Битрейт : 192 Кбит/сек
Каналы : 2 канала
Частота : 48,0 КГц
Метод сжатия : С потерями
Размер потока : 90,6 Мбайт (12%)
Выравнивание : Соединение по промежуткам
Продолжительность промежутка : 40 мс. (1,00 видеокадр)
Время предзагрузки промежутка : 504 мс.
Библиотека кодирования : LAME3.98r
Настройки программы : -m s -V 4 -q 2 -lowpass 18.6 -b 192
Скриншоты:
         
         
Время раздачи: С 09 до 23:00
Вне форума [Профиль] [ЛС]
Показать сообщения:    
Ответить на тему

Текущее время: Сегодня 02:01

Часовой пояс: GMT + 3



Вы не можете начинать темы
Вы не можете отвечать на сообщения
Вы не можете редактировать свои сообщения
Вы не можете удалять свои сообщения
Вы не можете голосовать в опросах
Вы не можете прикреплять файлы к сообщениям
Вы не можете скачивать файлы