Сегодня идет свободное скачивание без начисления Download

Между небом и землей (1975) TVRip

Ответить на тему
 
Автор
Сообщение

Omen ®

Стаж: 5 лет 10 месяцев

Сообщений: 184329

Торрент-статистика

Пост 13-Янв-2013 10:25

[Цитировать]

-Между небом и землей (1975) TVRip- Русское название: Между небом и землей
Производство: СССР. Молдова-фильм
Год выпуска: 1975
Жанр: Музыкальная комедия
Описание фильма:
Бесшабашному парню Симиону Куку пришло время идти служить в армию. Попав в воздушно-десантные войска под начальство неравнодушного к музыке старшины Петро Головко, который организовывает вокальное трио "Синева", названное так по начальным буквам его участников: молдаванина Симиона, армянина Нерсеса и русского Василия. И вот настал день, когда в военную часть должен приехать новый музыкальный руководитель, оказавшаяся очаровательной девушкой Сашей. Кто бы мог предположить, что после службы Симион вернется домой с симпатичной невестой
Режиссер: Михаил Бадикяну, Валерий Харченко
Актеры: Всеволод Абдулов, Семён Фарада, Семен Морозов, Роман Ткачук, Лариса Ерёмина, Виктор Перевалов, Д. Япуджан, Б. Монгуш, Виктор Флишаровский, Анатолий Солоницын, Николай Мерзликин, Домника Дариенко, Михаил Бадикяну, Людмила Иванова
Продолжительность: 01:13:32

Видеокодек: DivX 5
Битрейт видео: ~1927 Кбит/сек
Размер кадра: 688x272
Качество видео: TVRip
Аудиокодек: AC3 2.0
Битрейт аудио: 192 Кбит/сек

MediaInfo:

Общее
Полное имя : F:\1112\Между небом и землей (1975)\Между небом и землёй.avi
Формат : AVI
Формат/Информация : Audio Video Interleave
Размер файла : 1,09 Гбайт
Продолжительность : 1 ч. 13 м.
Общий поток : 2129 Кбит/сек
Режиссёр : Rip for nnm-club
Программа кодирования : VirtualDubMod 1.5.10.2 (build 2540/release)
Библиотека кодирования : Boilsoft AVI tool build 30012/release
Видео
Идентификатор : 0
Формат : MPEG-4 Visual
Параметр BVOP формата : Нет
Параметр QPel формата : Нет
Параметр GMC формата : Без точки перехода
Параметр матрицы формата : Default (H.263)
Идентификатор кодека : DX50
Идентификатор кодека/Подсказка : DivX 5
Продолжительность : 1 ч. 13 м.
Битрейт : 1927 Кбит/сек
Ширина : 688 пикселей
Высота : 272 пикселя
Соотношение сторон : 2,529
Частота кадров : 25,000 кадров/сек
Цветовое пространство : YUV
Субдискретизация насыщенности : 4:2:0
Битовая глубина : 8 бит
Тип развёртки : Прогрессивная
Метод сжатия : С потерями
Бит/(Пиксели*Кадры) : 0.412
Размер потока : 1014 Мбайт (91%)
Библиотека кодирования : DivX 5.2.1 (WaffleDay) (UTC 2004-09-08)
Аудио
Идентификатор : 1
Формат : MPEG Audio
Версия формата : Version 1
Профиль формата : Layer 2
Идентификатор кодека : 50
Продолжительность : 1 ч. 13 м.
Вид битрейта : Постоянный
Битрейт : 192 Кбит/сек
Каналы : 2 канала
Частота : 48,0 КГц
Метод сжатия : С потерями
Размер потока : 101 Мбайт (9%)
Выравнивание : Соединение по промежуткам
Продолжительность промежутка : 40 мс. (1,00 видеокадр)
Время предзагрузки промежутка : 504 мс.
Скриншоты:
         
         
Время раздачи: С 09 до 23:00
Между небом и землей на NNM-CLUB
Вне форума [Профиль] [ЛС]
Показать сообщения:    
Ответить на тему

Текущее время: Сегодня 14:18

Часовой пояс: GMT + 3



Вы не можете начинать темы
Вы не можете отвечать на сообщения
Вы не можете редактировать свои сообщения
Вы не можете удалять свои сообщения
Вы не можете голосовать в опросах
Вы не можете прикреплять файлы к сообщениям
Вы не можете скачивать файлы