Today is a free download without charge Download

Осень (1974) [H.264] DVDRip [Реставрация КП]

Reply to topic
 
Author
Message

Omen ®

Longevity: 6 years 5 months

Posts: 181112

Торрент-статистика

Post 13-Jan-2013 10:25

[Quote]

-Осень (1974) [H.264] DVDRip- Русское название: Осень
Год выпуска: 1974
Производство: СССР
Жанр: Мелодрама
Субтитры: Отсутствуют
Описание фильма:
В юности они любили друг друга, но потом расстались. Илья женился, Александра вышла замуж. Семейная жизнь у обоих не сложилась. Встретившись вновь, они понимают, что по-прежнему любят друг друга, и решают провести вместе несколько дней в деревне... Однако, прожитые годы и ошибки молодости постоянно разрушают эту идиллию и мешают, особенно Илье, принять, пожалуй, самое важное в их жизни решение...
Режиссер: Андрей Смирнов
Сценарист: Андрей Смирнов
Композитор: Альфред Шнитке
Актеры: Наталья Рудная, Леонид Кулагин, Наталья Гундарева, Александр Фатюшин, Людмила Максакова, Армен Джигарханян, Эля Макеева, Игорь Кашинцев, Юрий Кузьменков
Продолжительность: 01:27:56

Видеокодек: MPEG-4 AVC/H.264
Битрейт видео: ~1774 Кбит/сек
Размер кадра: [email protected]
Качество видео: DVDRip
Аудиокодек: AC3 5.1
Битрейт аудио: 448 Кбит/сек
Сэмпл: Ссылка

Дополнительная информация:

Рип сделан с DVD от объединения «Крупный План» с покадровой цифровой реставрацией изображения и ремастерингом звука.
Скачать DVD можно здесь:
[url=/forum/viewtopic.php?t=596705]http:///*spam*//forum/viewtopic.php?t=596705[/url]
В рипе сохранено оригинальное деление на эпизоды. Эпизоды проименованы в соответствии с оригинальным DVD.

Знаете ли вы, что...

- Фильм поставлен по литературному сценарию Андрея Смирнова «Рябина — ягода нежная»;
- Роль Эдика - дебют в кино Александра Фатюшина;
- В 1976 году в кинотеатрах фильм посмотрели 9,8 млн зрителей;
- Главная героиня Наталья Рудная была замужем за режиссёром картины Андреем Смирновым;
- Известная телеведущая («Школа злословия» на канале НТВ) и режиссёр Авдотья (Дуня) Смирнова - дочь Андрея Смирнова и Натальи Рудной.

...из книги «3500 кинорецензий»

Смысл общественной проработки авторов «Осени» сводился к вопросу: «А если это не любовь?». Двое, которым уже за тридцать (тридцатитрёхлетний Андрей Смирнов написал сценарий и поставил фильм в немалой степени о самом себе, ведь и актриса Наталья Рудная была в реальной жизни его первой женой), вновь встречаются вместе и, плюнув на все условности, уезжают в отпуск в деревню, как бы заново переживая свою юношескую любовь. Обсуждение на расширенной коллегии Госкино СССР и Союза кинематографистов можно было бы описать при помощи фразы, которая стала «всенародным достоянием» десятилетием позже: «У нас в стране секса нет». Причём Смирнова попрекали за отход от самого себя же — в литературном сценарии «Рябина — ягода нежная» всё якобы было описано «мягче и тоньше» (если воспользоваться терминологией одного из сатирических персонажей Аркадия Райкина). Разумеется, экранная фактура обнажённых тел, пока ещё завёрнутых в простыни (время перестройки было далеко за горами!), действовала на ревнителей социалистической нравственности сильнее, чем красивые описания в поэтической прозе.Перефразируя название сценария, можно было бы сказать, что у режиссёра в результате неизбежного смещения акцентов при столкновении с подлинной реальностью получился фильм «Осень — пора безжалостная». Даже те, кто не принял исполнителей главных ролей и действительно не удовлетворился разыгранными ими любовными взаимоотношениями, не могли не запомнить сцену в сельской пивной с закадровым чтением стихов Бориса Пастернака: «Превозмогая обожанье, / Я наблюдал, боготворя. / Здесь были бабы, слобожане, / Учащиеся, слесаря…». Естественно и природно существовала на экране деревенская супружеская пара в исполнении молодых Натальи Гундаревой и Александра Фатюшина, умудрённо интеллигентной представлялась семья городских друзей, сыгранных Арменом Джигарханяном и Людмилой Максаковой. Но киноначальству удобнее всего было придираться к непозволительному адюльтеру, хотя настоящее раздражение у властей возникало из-за прорывающегося, как трава сквозь асфальт, ощущения, что всё сиро и убого в родимом отечестве в осенние дни, когда кончилась «страда деревенская», а по-советски — очередная «битва за урожай».Вот и «История Аси Клячиной, которая любила да не вышла замуж», даже будучи переименованной в «Асино счастье», семью годами раньше оскорбила делегатов Съезда колхозников и надолго легла на пресловутую «полку». Андрей Кончаловский отчасти реабилитировал себя «Романсом о влюблённых», угодив режиму возвышенным патриотизмом, а почти сорока миллионам зрителей — романтизмом и, между прочим, откровенностью любовных чувств. Одновременно снятая «Осень» с трудом и как бы тайком доходила до публики, но всё-таки при тираже в 4,5 раза меньше, чем у «Романса о влюблённых», почти достигла десятимиллионного рубежа. Кстати, по тогдашним оценкам социологов, именно в 10 млн. человек определялась киноаудитория советской интеллигенции.Сергей Кудрявцев, 1996

MediaInfo

Общее
Уникальный идентификатор: 177355240003474112479805620149330877543 (0x856D6072CC1AF459A042393654DF9C67)
Полное имя: ...\smirnov-osen.mkv
Формат: Matroska
Размер файла: 1,36 Гбайт
Продолжительность: 1 ч. 27 м.
Общий поток: 2221 Кбит/сек
Программа кодирования: HandBrake 0.9.5
Библиотека кодирования: libmkv 0.6.4.1
Видео
Идентификатор: 1
Формат: AVC
Формат/Информация: Advanced Video Codec
Профиль формата: [url=mailto:[email protected]][email protected][/url]
Параметр CABAC формата: Да
Параметр ReFrames формата: 4 кадра
Параметры GOP формата: M=3, N=7
Идентификатор кодека: V_MPEG4/ISO/AVC
Продолжительность: 1 ч. 27 м.
Битрейт: 1774 Кбит/сек
Ширина: 720 пикс.
Высота: 432 пикс.
Соотношение сторон: 2,35:1
Режим частоты кадров: Переменный
Частота кадров: 25,000 кадр/сек
Цветовое пространство: YUV
Подвыборка цветности: 4:2:0
Битовая глубина: 8 бит
Тип развёртки: Прогрессивная
Бит/(Пиксели*Кадры): 0.228
Размер потока: 1,06 Гбайт (78%)
Библиотека кодирования: x264 core 112
Настройки программы: cabac=1 / ref=2 / deblock=1:0:0 / analyse=0x1:0x111 / me=hex / subme=6 / psy=1 / psy_rd=1.00:0.00 / mixed_ref=0 / me_range=16 / chroma_me=1 / trellis=0 / 8x8dct=0 / cqm=0 / deadzone=21,11 / fast_pskip=1 / chroma_qp_offset=-2 / threads=3 / sliced_threads=0 / nr=0 / decimate=1 / interlaced=0 / constrained_intra=0 / bframes=2 / b_pyramid=2 / b_adapt=1 / b_bias=0 / direct=1 / weightb=0 / open_gop=0 / weightp=2 / keyint=250 / keyint_min=25 / scenecut=40 / intra_refresh=0 / rc_lookahead=40 / rc=abr / mbtree=1 / bitrate=1774 / ratetol=1.0 / qcomp=0.60 / qpmin=3 / qpmax=51 / qpstep=4 / ip_ratio=1.40 / aq=1:1.00
Язык: English
Основные цвета: BT.601-6 525, BT.1358 525, BT.1700 NTSC, SMPTE 170M
Характеристики трансфера: BT.709-5, BT.1361
Коэффициенты матрицы: BT.601-6 525, BT.1358 525, BT.1700 NTSC, SMPTE 170M
Аудио
Идентификатор: 2
Формат: AC-3
Формат/Информация: Audio Coding 3
Расширение режима: CM (complete main)
Идентификатор кодека: A_AC3
Продолжительность: 1 ч. 27 м.
Вид битрейта: Постоянный
Битрейт: 448 Кбит/сек
Каналы: 6 каналов
Расположение каналов: Front: L C R, Side: L R, LFE
Частота: 48,0 КГц
Битовая глубина: 16 бит
Метод сжатия: С потерями
Размер потока: 282 Мбайт (20%)
Язык: Russian
Меню
00:00:00.000: «С приездом!»
00:05:01.320: День первый. Обустройство
00:10:10.920: За ужином
00:18:15.240: День второй
00:25:05.160: День третий. На рыбалке
00:37:32.040: День четвёртый. Гармония
00:40:11.400: День пятый. Дождливая погода
00:52:07.560: День шестой. Телефонный разговор
01:01:10.440: За кружкой пива. Объяснение в любви
01:10:34.920: Десь седьмой. Отъезд
01:13:37.320: День восьмой. Пощёчина
01:17:09.000: Подруга. Илья
Скриншоты:

Время раздачи: 24/7 - круглосуточно
Other forum [Profile] [PM]
Display posts from previous:    
Reply to topic

The time now is: Today 15:24

All times are GMT + 3 Hours



You cannot post new topics in this forum
You cannot reply to topics in this forum
You cannot edit your posts in this forum
You cannot delete your posts in this forum
You cannot vote in polls in this forum
You cannot attach files in this forum
You cannot download files in this forum