Сегодня идет свободное скачивание без начисления Download

Непобедимый (1983) [H.264] DVDRip

Ответить на тему
 
Автор
Сообщение

Omen ®

Стаж: 6 лет

Сообщений: 184329

Торрент-статистика

Пост 13-Янв-2013 10:25

[Цитировать]

-Непобедимый (1983) [H.264] DVDRip- Русское название: Непобедимый
Год выпуска: 1983
Жанр: Приключения, Боевик
Описание фильма:
Андрей Хромов, одержимый идеей создать новый вид борьбы - "самооборону без оружия", едет в Среднюю Азию, где знакомится с народной борьбой кураш. За время пребывания герой не раз попадает в трудные ситуации, из которых выйдет с честью. Действие фильма, посвящённого памяти Анатолия Аркадьевича Харлампиева, основоположника борьбы самбо, происходит в Советской России в 20-х годах прошлого столетия.
Режиссер: Юрий Борецкий
Актеры: Андрей Ростоцкий, Хамза Умаров, Нурмухан Жантурин, Едгар Сагдиев, Гульнара Дусматова, Биродар Атабаев, Дильшот Исмаилов, Николай Карпов
Продолжительность: 01:09:06

Видеокодек: MPEG-4 AVC/H.264
Битрейт видео: ~1958 Кбит/сек
Размер кадра: 768x576
Качество видео: DVDRip
Аудиокодек: AC3 2.0
Битрейт аудио: 192 Кбит/сек

MediaInfo:

Общее
Уникальный идентификатор : 222737912164306102603109057540639174008 (0xA791C2F0458532389FBABE80702C2D78)
Полное имя : H:\!V\Непобедимый (1985) DVDRip\Непобедимый.mkv
Формат : Matroska
Версия формата : Version 2
Размер файла : 1,06 Гбайт
Продолжительность : 1 ч. 9 м.
Общий поток : 2193 Кбит/сек
Дата кодирования : UTC 2013-01-03 15:34:32
Программа кодирования : mkvmerge v5.8.0 ('No Sleep / Pillow') built on Sep 2 2012 15:37:04
Библиотека кодирования : libebml v1.2.3 + libmatroska v1.3.0
Видео
Идентификатор : 1
Формат : AVC
Формат/Информация : Advanced Video Codec
Профиль формата : [url=mailto:[email protected]][email protected][/url]
Параметр CABAC формата : Нет
Параметр ReFrames формата : 2 кадра
Параметр GOP формата : M=1, N=12
Режим смешивания : Header stripping
Идентификатор кодека : V_MPEG4/ISO/AVC
Продолжительность : 1 ч. 9 м.
Битрейт : 1958 Кбит/сек
Ширина : 768 пикселей
Высота : 576 пикселей
Соотношение сторон : 4:3
Режим частоты кадров : Постоянный
Частота кадров : 23,976 кадра/сек
Стандарт вещания : NTSC
Цветовое пространство : YUV
Субдискретизация насыщенности : 4:2:0
Битовая глубина : 8 бит
Тип развёртки : Прогрессивная
Бит/(Пиксели*Кадры) : 0.185
Размер потока : 968 Мбайт (89%)
Default : Да
Forced : Нет
Основные цвета : BT.601 NTSC
Характеристики трансфера : BT.601
Коэффициенты матрицы : BT.601
Аудио
Идентификатор : 2
Формат : AC-3
Формат/Информация : Audio Coding 3
Расширение режима : CM (complete main)
Параметр Endianness формата : Big
Режим смешивания : Header stripping
Идентификатор кодека : A_AC3
Продолжительность : 1 ч. 9 м.
Вид битрейта : Постоянный
Битрейт : 192 Кбит/сек
Каналы : 2 канала
Расположение каналов : Front: L R
Частота : 48,0 КГц
Битовая глубина : 16 бит
Метод сжатия : С потерями
Размер потока : 94,9 Мбайт (9%)
Язык : Russian
Default : Да
Forced : Нет
Скриншоты:
         
         
Время раздачи: С 09 до 23:00
Другие релизы Непобедимый на NNM-CLUB
Вне форума [Профиль] [ЛС]
Похожие темы
Форум Тема Автор Торрент Отв. Посл. сообщение
./templates/default/images/folder_dl.gif Фантастика, фэнтези, ужасы, мистика Егор Чекрыгин | Свиток 2. Непобедимый (2017) [MP3] }{@R0N
1 | 0

0 | 14606

8

2017-11-10 23:15
}{@R0N Последнее
Показать сообщения:    
Ответить на тему

Текущее время: Сегодня 15:48

Часовой пояс: GMT + 3



Вы не можете начинать темы
Вы не можете отвечать на сообщения
Вы не можете редактировать свои сообщения
Вы не можете удалять свои сообщения
Вы не можете голосовать в опросах
Вы не можете прикреплять файлы к сообщениям
Вы не можете скачивать файлы