Сегодня идет свободное скачивание без начисления Download

Ищу мою судьбу (1974) SATRip

Ответить на тему
 
Автор
Сообщение

Omen ®

Стаж: 5 лет 10 месяцев

Сообщений: 184329

Торрент-статистика

Пост 13-Янв-2013 10:25

[Цитировать]

-Ищу мою судьбу (1974) SATRip- Русское название: Ищу мою судьбу
Год выпуска: 1974
Жанр: Драма
Описание фильма:
В этом фильме несколько главных героев, но, пожалуй, основное действующее лицо — женщина по имени Надежда. К этому образу стягиваются сюжетные линии произведения. Она оказывается необходимой для всех, даже тех, кто поначалу, как ее младшая сестренка, не отдает себе в этом отчета. А кроме того, она ведь НАДЕЖДА. Нельзя сказать, чтобы все у Надежды складывалось удачно. Она одна воспитывает сынишку, сестра Вера покончила жизнь самоубийством, а младшая, Люба, переживает трудную пору. Она думает найти поддержку у только что приехавшего в их город священника — отца Александра, но у него самого нет окончательной уверенности в правильности когда-то сделанного выбора. Действие фильма застает его в тот момент, когда на его пути появилась Надежда. Она борется за судьбу Александра чутко, по-доброму, но и твердо. И не одна она стремится утвердить в нем новые мысли, другие стремления.
Режиссер: Аида Манасарова
Актеры: Георгий Жжёнов, Эдуард Марцевич, Галина Польских, Елена Сафонова, Семен Морозов, Константин Сорокин, Майя Булгакова, Евгений Шутов, Антонина Павлычева, Сергей Яковлев, Анатолий Ведёнкин, Вера Алтайская, Александр Лебедев, Владимир Пицек, Марианна (Марина) Стриженова, Валентина Березуцкая, Манефа Соболевская, Инна Выходцева, Лариса Данилина, Светлана Степанова, Вера Бурлакова, Александра Харитонова, Лия Ахеджакова, Любовь Калюжная, Вячеслав Гостинский
Продолжительность: 01:35:02

Видеокодек: Xvid
Битрейт видео: ~1502 Кбит/сек
Размер кадра: 704x288
Качество видео: SATRip
Аудиокодек: MP3, 2 ch
Битрейт аудио: 128 Кбит/сек

MediaInfo:

Общее
Полное имя : D:\!N\Ищу мою судьбу\Ищу мою судьбу 1974 SATRip.avi
Формат : AVI
Формат/Информация : Audio Video Interleave
Размер файла : 1,09 Гбайт
Продолжительность : 1 ч. 35 м.
Общий поток : 1640 Кбит/сек
Программа кодирования : VirtualDubMod 1.5.10.2 (build 2540/release)
Библиотека кодирования : Boilsoft AVI tool build 30012/release
Видео
Идентификатор : 0
Формат : MPEG-4 Visual
Профиль формата : Advanced [email protected]
Параметр BVOP формата : 2
Параметр QPel формата : Нет
Параметр GMC формата : Без точки перехода
Параметр матрицы формата : Default (MPEG)
Идентификатор кодека : XVID
Идентификатор кодека/Подсказка : XviD
Продолжительность : 1 ч. 35 м.
Битрейт : 1502 Кбит/сек
Ширина : 704 пикселя
Высота : 288 пикселей
Соотношение сторон : 2,40:1
Частота кадров : 25,000 кадров/сек
Цветовое пространство : YUV
Субдискретизация насыщенности : 4:2:0
Битовая глубина : 8 бит
Тип развёртки : Прогрессивная
Метод сжатия : С потерями
Бит/(Пиксели*Кадры) : 0.296
Размер потока : 1021 Мбайт (92%)
Библиотека кодирования : XviD 1.2.1 (UTC 2008-12-04)
Аудио
Идентификатор : 1
Формат : MPEG Audio
Версия формата : Version 1
Профиль формата : Layer 3
Идентификатор кодека : 55
Идентификатор кодека/Подсказка : MP3
Продолжительность : 1 ч. 35 м.
Вид битрейта : Постоянный
Битрейт : 128 Кбит/сек
Каналы : 2 канала
Частота : 48,0 КГц
Метод сжатия : С потерями
Размер потока : 87,0 Мбайт (8%)
Выравнивание : Соединение по промежуткам
Продолжительность промежутка : 40 мс. (1,00 видеокадр)
Время предзагрузки промежутка : 504 мс.
Скриншоты:
         
         
Время раздачи: С 09 до 23:00
Вне форума [Профиль] [ЛС]
Показать сообщения:    
Ответить на тему

Текущее время: Сегодня 14:16

Часовой пояс: GMT + 3



Вы не можете начинать темы
Вы не можете отвечать на сообщения
Вы не можете редактировать свои сообщения
Вы не можете удалять свои сообщения
Вы не можете голосовать в опросах
Вы не можете прикреплять файлы к сообщениям
Вы не можете скачивать файлы