Сегодня идет свободное скачивание без начисления Download

Любовь Серафима Фролова (1968) DVBRip

Ответить на тему
 
Автор
Сообщение

Omen ®

Стаж: 5 лет 10 месяцев

Сообщений: 184329

Торрент-статистика

Пост 13-Янв-2013 10:25

[Цитировать]

-Любовь Серафима Фролова (1968) DVBRip- Русское название: Любовь Серафима Фролова
Год выпуска: 1968
Жанр: Мелодрама
Описание фильма:
Первые послевоенные годы. Серафим приезжает к девушке, с которой знаком только по переписке.
Режиссер: Семен Туманов
Актеры: Леонид Куравлёв, Тамара Сёмина, Лариса Лужина, Жанна Прохоренко, Геннадий Юхтин, Павел Шпрингфельд, Александра Денисова
Продолжительность: 01:17:50

Видеокодек: MPEG-2
Битрейт видео: ~1961 Кбит/сек
Размер кадра: 720x576
Качество видео: DVBRip
Аудиокодек: MP2. 2 ch
Битрейт аудио: 192 Кбит/сек

MediaInfo:

Общее
Полное имя : H:\!V\!Подгот\Любовь Серафима Фролова\Любовь Серафима Фролова.mpg
Формат : MPEG-PS
Размер файла : 1,19 Гбайт
Продолжительность : 1 ч. 17 м.
Режим общего битрейта : Переменный
Общий поток : 2197 Кбит/сек
Библиотека кодирования : (c) 1998-2010 Womble Multimedia, Inc. / MPEG Video Wizard DVD 5.0.0.114 (01/2010) / Dec 10 2010
Видео
Идентификатор : 224 (0xE0)
Формат : MPEG Video
Версия формата : Version 2
Профиль формата : [email protected]
Параметр BVOP формата : Да
Параметр матрицы формата : Выборочная
Параметр GOP формата : Variable
Продолжительность : 1 ч. 17 м.
Вид битрейта : Переменный
Битрейт : 1961 Кбит/сек
Максимальный битрейт : 15,0 Мбит/сек
Ширина : 720 пикселей
Высота : 576 пикселей
Соотношение сторон : 4:3
Частота кадров : 25,000 кадров/сек
Стандарт вещания : PAL
Цветовое пространство : YUV
Субдискретизация насыщенности : 4:2:0
Битовая глубина : 8 бит
Тип развёртки : Чересстрочная
Порядок развёртки : Верхнее поле первое
Метод сжатия : С потерями
Бит/(Пиксели*Кадры) : 0.189
Размер потока : 1,07 Гбайт (89%)
Выравнивание : (c) 1998-2010 Womble Multimedia, Inc. / MPEG Video Wizard DVD 5.0.0.114 (01/2010) / Dec 10 2010
Заголовок : (c) 1998-2010 Womble Multimedia, Inc. / MPEG Video Wizard DVD 5.0.0.114 (01/2010) / Dec 10 2010
Библиотека кодирования : (c) 1998-2010 Womble Multimedia, Inc. / MPEG Video Wizard DVD 5.0.0.114 (01/2010) / Dec 10 2010
Аудио
Идентификатор : 192 (0xC0)
Формат : MPEG Audio
Версия формата : Version 1
Профиль формата : Layer 2
Продолжительность : 1 ч. 17 м.
Вид битрейта : Постоянный
Битрейт : 192 Кбит/сек
Каналы : 2 канала
Частота : 48,0 КГц
Метод сжатия : С потерями
Размер потока : 107 Мбайт (9%)
Меню
Скриншоты:
         
         
Время раздачи: С 10 до 22:00
Вне форума [Профиль] [ЛС]
Похожие темы
Форум Тема Автор Торрент Отв. Посл. сообщение
./templates/default/images/folder_dl.gif Приключения и квесты Mahjong Detective: The Stolen Love / Маджонг Детектив. Похищенная Любовь [P] [RUS] (2015) Omen
2 | 0

0 | 1183

20

2015-06-08 21:00
Omen Последнее
./templates/default/images/folder_dl.gif Фильмы Как добраться мне потом отсюда? ([2017 г., Amateur, Blowjob, Dogging, CamRip, 720p] (Любовники) XP1971
0 | 1

0 | 10606

47

2017-07-16 15:30
XP1971 Последнее
Показать сообщения:    
Ответить на тему

Текущее время: Сегодня 04:39

Часовой пояс: GMT + 3



Вы не можете начинать темы
Вы не можете отвечать на сообщения
Вы не можете редактировать свои сообщения
Вы не можете удалять свои сообщения
Вы не можете голосовать в опросах
Вы не можете прикреплять файлы к сообщениям
Вы не можете скачивать файлы