Сегодня идет свободное скачивание без начисления Download

Последний шанс ( 1978) [H.264] DVDRip

Ответить на тему
 
Автор
Сообщение

Omen ®

Стаж: 6 лет

Сообщений: 184329

Торрент-статистика

Пост 13-Янв-2013 10:25

[Цитировать]

-Последний шанс (1978) [H.264] DVDRip- Русское название: Последний шанс
Год выпуска: 1978
Жанр: Драма
Описание фильма:
В профессионально-техническое училище приходит условно осужденный подросток Слава Горохов. Чуткий и тактичный мастер Ершов не поддается на уговоры коллектива, который сразу же "сломал зуб" об инфантильного лоботряса, а спокойно прокладывает стежки-дорожки к душе парня.
Режиссер: Эдуард Гаврилов
Актеры: Леонид Каюров, Андрей Мартынов, Марина Левтова, Олег Ефремов, Александр Кавалеров, Андрей Харыбин, Людмила Шагалова, Анатолий Кузнецов, Любовь Соколова, Валентина Ананьина, Наталья Гвоздикова, Ольга Битюкова, Николай Парфенов, Владимир Звягин
Продолжительность: 01:19:31

Видеокодек: MPEG-4 AVC/H.264
Битрейт видео: ~1958 Кбит/сек
Размер кадра: 768x576
Качество видео: DVDRip
Аудиокодек: AC3 2.0
Битрейт аудио: 192 Кбит/сек

MediaInfo:

Общее
Уникальный идентификатор : 224777961674656984115868893813982814649 (0xA91AA925205FBE15AE0D4E9182E6E1B9)
Полное имя : H:\!V\!Подгот\Последний шанс DVDRip\Последний шанс.mkv
Формат : Matroska
Версия формата : Version 4 / Version 2
Размер файла : 1,22 Гбайт
Продолжительность : 1 ч. 19 м.
Общий поток : 2193 Кбит/сек
Дата кодирования : UTC 2010-02-22 21:41:31
Программа кодирования : mkvmerge v5.9.0 ('On The Loose') built on Dec 9 2012 15:37:01
Библиотека кодирования : libebml v1.3.0 + libmatroska v1.4.0
Видео
Идентификатор : 1
Формат : AVC
Формат/Информация : Advanced Video Codec
Профиль формата : [url=mailto:[email protected]][email protected][/url]
Параметр CABAC формата : Нет
Параметр ReFrames формата : 2 кадра
Параметр GOP формата : M=1, N=12
Режим смешивания : Header stripping
Идентификатор кодека : V_MPEG4/ISO/AVC
Продолжительность : 1 ч. 19 м.
Битрейт : 1958 Кбит/сек
Ширина : 768 пикселей
Высота : 576 пикселей
Соотношение сторон : 4:3
Режим частоты кадров : Постоянный
Частота кадров : 25,000 кадров/сек
Стандарт вещания : PAL
Цветовое пространство : YUV
Субдискретизация насыщенности : 4:2:0
Битовая глубина : 8 бит
Тип развёртки : Прогрессивная
Бит/(Пиксели*Кадры) : 0.177
Размер потока : 1,09 Гбайт (89%)
Язык : Russian
Default : Да
Forced : Нет
Основные цвета : BT.601 PAL
Характеристики трансфера : BT.470 System B, BT.470 System G
Коэффициенты матрицы : BT.601
Аудио
Идентификатор : 2
Формат : AC-3
Формат/Информация : Audio Coding 3
Расширение режима : CM (complete main)
Параметр Endianness формата : Big
Режим смешивания : Header stripping
Идентификатор кодека : A_AC3
Продолжительность : 1 ч. 19 м.
Вид битрейта : Постоянный
Битрейт : 192 Кбит/сек
Каналы : 2 канала
Расположение каналов : Front: L R
Частота : 48,0 КГц
Битовая глубина : 16 бит
Метод сжатия : С потерями
Задержка видео : 24 мс.
Размер потока : 109 Мбайт (9%)
Язык : Russian
Default : Да
Forced : Нет
Скриншоты:
         
         
Время раздачи: С 10 до 22:00
Вне форума [Профиль] [ЛС]
Похожие темы
Форум Тема Автор Торрент Отв. Посл. сообщение
./templates/default/images/folder_dl.gif Фильмы 2001-2010 Обитель зла 4: Жизнь после смерти / Resident Evil: Afterlife (Пол У. С. Андерсон) [2010 г., ужасы, фантастика, боевик, триллер, DVDRip] kilmister777
1 | 0

0 | 1385

40

2010-10-06 18:54
kilmister777 Последнее
./templates/default/images/folder_dl.gif Компьютерная литература Михаил Пантаев | Матанализ с человеческим лицом, или Как выжить после предельного перехода. Полный курс математического анализа. Том 2 (2016) [PDF] moralis
1 | 0

0 | 1975

18

2016-03-09 21:50
moralis Последнее
./templates/default/images/folder_dl.gif Справочники, энциклопедии и словари Михаил Пантаев | Матанализ с человеческим лицом, или Как выжить после предельного перехода. Полный курс математического анализа. Том 1 (2015) [PDF] moralis
1 | 0

0 | 1905

14

2016-03-09 21:51
moralis Последнее
./templates/default/images/folder_dl.gif Фантастика, фэнтези, ужасы, мистика Андрей Круз | После (2017) [FB2] }{@R0N
1 | 0

1 | 4455

20

2018-02-22 01:03
Russfreeman Последнее
./templates/default/images/folder_dl.gif Новинки (BD|HDTV|DVD) Звёздные войны: Последние джедаи / Star Wars: The Last Jedi (Райан Джонсон) [2017, фантастика, фэнтези, боевик, приключения, UHD BDRemux 2160p] DUB | iTunes Theseus
1 | 0

0 | 758

5

2018-03-15 14:03
Theseus Последнее
./templates/default/images/folder_dl.gif Фантастика, фэнтези, ужасы, мистика Андрей Круз, Андрей Царев | Земля Лишних. Последний борт на Одессу (2018) [MP3] }{@R0N
1 | 0

0 | 381

2

2018-07-18 21:33
}{@R0N Последнее
./templates/default/images/folder_dl.gif Новинки (HD|DVD|BD|WEB|TV|SAT|PDTV|-Rip) Миссия невыполнима: Последствия / Mission: Impossible - Fallout (Кристофер МакКуорри) [2018 г., боевик, триллер, приключения, WEBRip] MVO | MUZOBOZ Theseus
1 | 0

0 | 1086

24

2018-09-15 14:33
Theseus Последнее
Показать сообщения:    
Ответить на тему

Текущее время: Сегодня 15:48

Часовой пояс: GMT + 3



Вы не можете начинать темы
Вы не можете отвечать на сообщения
Вы не можете редактировать свои сообщения
Вы не можете удалять свои сообщения
Вы не можете голосовать в опросах
Вы не можете прикреплять файлы к сообщениям
Вы не можете скачивать файлы