Today is a free download without charge Download

Янки Дудл Денди / Yankee Doodle Dandy (1942) [720p] WEB-DL

Reply to topic
 
Author
Message

Omen ®

Longevity: 8 years 5 months

Posts: 181087

Торрент-статистика

Post 13-Jan-2013 10:25

[Quote]

- Янки Дудл Денди / Yankee Doodle Dandy (1942) [720p] WEB-DL
- «Based on the story of GEORGE M. COHAN with the Greatest of all his Great Music» - Название: Янки Дудл Денди
Оригинальное название: Yankee Doodle Dandy
Год выпуска: 1942
Жанр: драма, мелодрама, биография
Выпущено: США, Warner Bros. Pictures
Описание фильма:
Биографический фильм, рассказывающий о жизни прославленного бродвейского актера, певца и танцора Джорджа М. Коэна, автора патриотических американских песен. Картина построена как цепь воспоминаний самого постаревшего Коэна о собственной жизни, начиная со дня рождения (4 июля 1878 года) до вручения награды из рук президента США за вклад в искусство. Это история жизни человека, который сам продюсировал, писал и играл в своих музыкальных шоу. Сцены детских выступлений Джорджа, историю его сотрудничества с писателем и продюсером Сэмом Хэррисом, реконструкцию фрагментов Бродвейских представлений Коэна. Это ему как теоретику американского мюзикла принадлежит знаменитое определение жанра, — «Ритм, ритм и еще раз ритм!».
Режиссер: Майкл Кертис
В ролях: Джеймс Кэгни, Джоан Лесли, Уолтер Хьюстон, Ричард Хорф, Ирен Мэннинг, Джордж Тобиаш, Розмари ДеКамп, Джинн Кэгни, Фрэнсис Лангфорд, Джордж Барбье, С.З. Сакалл, Уолтер Кэтлетт, Дуглас Крофт, Эдди Фой мл., Майнор Уотсон, Одетт Мертил, Эдди Акафф, Мюррэй Элпер, Херберт Хейвуд, Джек Янг, Вивиан Остин, Лесли Брукс, Энн Доран, Эрнест Андерсон
Продолжительность: 02:05:35
Перевод: Многоголосый закадровый
Субтитры: нет

Рейтинг MPAA: PG 13– лицам до 13 лет обязательное присутствие родителей!!!
Дата мировой премьеры: 29 мая 1942
Видеокодек: MPEG-4 AVC
Битрейт видео: ~ 3853 Кбит/с
Размер кадра: 950x720
Качество видео: WEB-DL
Аудио:
1. Dolby Digital Русский 2.0 / 48 kHz / 192 kbps (Многоголосый закадровый, New Dream Media)
2. Dolby Digital Английский 2.0 / 48 kHz / 192 kbps

Награды и номинации

Оскар, 1943 год
Победитель: Лучшая мужская роль (Джеймс Кэгни); Лучший звук; Лучший саундтрек для музыкальных картин
Номинации: Лучший фильм; Лучшая мужская роль второго плана (Уолтер Хьюстон); Лучший режиссер (Майкл Кертис); Лучший сюжет; Лучший монтаж

MediaInfo

Полное имя : D:\Yankee.Doodle.Dandy.1942.720p.WEB-DL.Rus.Eng.HDCLUB.mkv
Формат : Matroska
Версия формата : Version 2
Размер файла : 3.79 GiB
Продолжительность : 2h 5mn
Общий поток : 4 323 Kbps
Название фильма : Yankee Doodle Dandy (1942)
Дата кодирования : UTC 2012-12-04 01:01:45
Программа кодирования : mkvmerge v5.8.0 ('No Sleep / Pillow') built on Sep 2 2012 15:37:04
Библиотека кодирования : libebml v1.2.3 + libmatroska v1.3.0
Video
Идентификатор : 1
Формат : AVC
Формат/Информация : Advanced Video Codec
Профиль формата : [url=mailto:[email protected]][email protected][/url]
Параметр CABAC формата : No
Параметр ReFrames формата : 2 frames
Идентификатор кодека : V_MPEG4/ISO/AVC
Продолжительность : 2h 5mn
Битрейт : 3 853 Kbps
Ширина : 950 pixels
Высота : 720 pixels
Соотношение сторон : 4:3
Частота кадров : 23.976 fps
Цветовое пространство : YUV
Субдискретизация насыщенности : 4:2:0
Битовая глубина : 8 bits
Тип развёртки : Progressive
Бит/(Пиксели*Кадры) : 0.235
Размер потока : 3.38 GiB (89%)
Язык : English
Default : Yes
Forced : No
Color primaries : BT.709-5, BT.1361, IEC 61966-2-4, SMPTE RP177
Transfer characteristics : BT.709-5, BT.1361
Matrix coefficients : BT.709-5, BT.1361, IEC 61966-2-4 709, SMPTE RP177
Audio #1
Идентификатор : 2
Формат : AC-3
Формат/Информация : Audio Coding 3
Профиль формата : Dolby Digital
Расширение режима : CM (complete main)
Параметр Endianness формата : Big
Идентификатор кодека : A_AC3
Продолжительность : 2h 5mn
Вид битрейта : Constant
Битрейт : 192 Kbps
Каналы : 2 channels
Расположение каналов : Front: L R
Частота : 48.0 KHz
Битовая глубина : 16 bits
Метод сжатия : Lossy
Размер потока : 172 MiB (4%)
Заголовок : AC3 48kHz 2.0 192 kbps MVO New Dream Media
Язык : Russian
Default : Yes
Forced : No
Audio #2
Идентификатор : 3
Формат : AC-3
Формат/Информация : Audio Coding 3
Профиль формата : Dolby Digital
Расширение режима : CM (complete main)
Параметр Endianness формата : Big
Идентификатор кодека : A_AC3
Продолжительность : 2h 5mn
Вид битрейта : Constant
Битрейт : 192 Kbps
Каналы : 2 channels
Расположение каналов : Front: L R
Частота : 48.0 KHz
Битовая глубина : 16 bits
Метод сжатия : Lossy
Размер потока : 172 MiB (4%)
Заголовок : AC3 48kHz 2.0 192 kbps Original
Язык : English
Default : No
Forced : No
Menu
00:00:00.000 : en:Credits.
00:01:11.000 : en:White House summons.
00:04:23.000 : en:F.D.R.
00:06:54.000 : en:It's a boy.
00:11:17.000 : en:Peck's Bad Boy.
00:16:28.000 : en:A place without talent.
00:21:11.000 : en:Four of a Kind.
00:23:09.000 : en:Old man's visitor.
00:27:54.000 : en:I Was Born in Virginia.
00:30:39.000 : en:The Warmest Baby in the Bunch.
00:34:42.000 : en:Harrigan.
00:39:09.000 : en:Splitting up.
00:42:19.000 : en:Partners.
00:46:18.000 : en:The Yankee Doodle Boy.
00:49:30.000 : en:Little Johnny Jones #2.
00:52:29.000 : en:Give My Regards To Broadway.
00:57:10.000 : en:Family reunion.
00:59:14.000 : en:Mary's a Grand Old Name.
01:02:16.000 : en:Fay Templeton.
01:06:36.000 : en:Forty-Five Minutes From Broadway.
01:09:48.000 : en:Mary knew.
01:12:32.000 : en:Templeton medley.
01:17:35.000 : en:Cohan meets Foy.
01:19:53.000 : en:You're a Grand Old Flag.
01:25:17.000 : en:Just George alone.
01:29:50.000 : en:A son's gift.
01:32:29.000 : en:Popularity...lacking.
01:36:33.000 : en:Needed more here.
01:39:20.000 : en:Over There.
01:43:11.000 : en:Postwar medley.
01:45:22.000 : en:Dad's final curtain.
01:48:44.000 : en:Just a handshake.
01:52:12.000 : en:What was your name?
01:54:19.000 : en:Stage-struck again.
01:57:11.000 : en:Off the Record.
02:00:31.000 : en:Medal of honor.
02:03:02.000 : en:In step.
02:05:00.000 : en:Cast List.
Скриншоты:
- Без разрешения автора раздачи на первоисточнике запрещается выкладывать на других ресурсах!!!
Для сайта NNM-Club получено разрешение автора раздачи.
-Раздача: 24/7-Не забываем говорить спасибо, Вам не сложно, а мне приятно)))
Прошу с раздачи не уходить! Скачал сам, дай и другим скачать!!!
Приятного просмотра)))
Other forum [Profile] [PM]
Display posts from previous:    
Reply to topic

The time now is: Today 09:55

All times are GMT + 3 Hours



You cannot post new topics in this forum
You cannot reply to topics in this forum
You cannot edit your posts in this forum
You cannot delete your posts in this forum
You cannot vote in polls in this forum
You cannot attach files in this forum
You cannot download files in this forum