Today is a free download without charge Download

Планета обезьян: Пенталогия – 40 лет эволюции / Planet of the Apes: 40-Year Evolution Collection (1968-1973) [720p] BDRip

Reply to topic
 
Author
Message

Omen ®

Longevity: 8 years 5 months

Posts: 181087

Торрент-статистика

Post 13-Jan-2013 10:25

[Quote]

- Планета обезьян: Пенталогия – 40 лет эволюции /
Planet of the Apes: 40-Year Evolution Collection (1968-1973) [720p] BDRip
- « Planet of the Apes » - Русское название: Планета обезьян: Пенталогия – 40 лет эволюции
Оригинальное название: Planet of the Apes: 40-Year Evolution Collection
Страна: США
Студия: Twentieth Century Fox
Год выпуска: 1968 / 1970 / 1971 / 1972 / 1973
Жанр: Фантастика, Боевик, Приключения
Режиссер: Франклин Дж. Шаффнер, Тед Пост, Дон Тейлор, Дж. Ли Томпсон
Продолжительность: 01:52:02 | 01:34:42 | 01:37:32 | 01:27:22 | 01:36:26
Описание коллекции:
Планета обезьян (англ. Planet of the Apes) — художественный фильм 1960—1970-х годов, основанный на одноимённом романе Пьера Буля. У фильма есть римейк и четыре сиквела, телевизионные и книжные адаптации, а также комиксы и видеоигры по их мотивам.
Сиквелы:
1. Планета обезьян (1968)
2. Под планетой обезьян (1970)
3. Бегство с планеты обезьян (1971)
4. Завоевание планеты обезьян (1972)
5. Битва за планету обезьян (1973)
6. Восстание планеты обезьян (2011)
Релиз:
Перевод и озвучка от студии "Омикрон" сделаны специально для при поддержке SNAUTS-

Плaнета обезьян / Planet of the Apes

Плaнета обезьян / Planet of the Apes (1968) [720p] BDRip
- «Hunted . . . haunted . . . wanted . . . like beasts of prey!» - Русское название: Планета обезьян
Оригинальное название: Planet of the Apes
Год выпуска: 1968
Жанр: Фантастика, Боевик, Приключения
Описание фильма:
После успешно выполненного задания космический корабль устремляется к Земле, хотя астронавты отчетливо понимают, что на земле из-за парадокса Эйнштейна уже прошло несколько столетий, а значит нет уже никого на планете, кто даже отдаленно мог бы назваться близким для них человеком.
Но когда звездолет терпит катастрофу на непонятной планете, совсем не похожей на добродушную матушку-Землю, оставшиеся в живых, но потерявшие все имущество космонавты вдруг с ужасом понимают, что круто попали…
Попали в плен к суровым и агрессивным человекоподобным монстрам, более похожим на горилл из их прошлой жизни. Где мы? И что происходит? Вот вопросы, на которые пока не видно ответа…
Режиссер: Франклин Дж. Шаффнер / Franklin J. Schaffner
Актеры: Чарлтон Хестон, Родди МакДауэлл, Ким Хантер, Морис Эванс, Джеймс Уитмор, Джеймс Дэйли, Линда Харрисон, Robert Gunner, Лу Вагнер, Вудроу Парфри
Продолжительность: 01:52:02
Перевод: Дублирвоанный, Многоголосый закадровый, Двухголосый закадровый, Одноголосый закадровый
Субтитры: Английский, Русский

Рейтинг MPAA: PG 13 – лицам до 13 лет обязательное присутствие родителей!!!
Дата мировой премьеры: 8 февраля 1968
Дата DVD премьеры: 14 мая 2009, «Двадцатый Век Фокс СНГ»
Дата Blu-ray премьеры: 26 февраля 2009, «Двадцатый Век Фокс СНГ»
Видеокодек: MPEG-4 AVC
Битрейт видео: ~ 4000 Кбит/сек
Размер кадра: 1280x544
Качество видео: BDRip
Аудио:
1. DTS Русский 5.1 / 48 kHz / 1509 kbps / 24-bit (Многоголосый закадровый, студия «Омикрон»)
2. DTS Русский 5.1 / 48 kHz / 768 kbps / 24-bit (Дублированный, Blu-ray EUR)
3. DTS Русский 5.1 / 48 kHz / 1509 kbps / 24-bit (Одноголосый закадровый, Ю.Живов)
4. Dolby Digital Русский 5.1 / 48 kHz / 192 kbps (Двухголосый закадровый, DVD Magic)
5. DTS Английский 5.1 / 48 kHz / 1509 kbps / 24-bit

Награды и номинации

Оскар, 1969 год
Номинации (2):
• Лучшие костюмы
• Лучший саундтрек к драматическому фильму

Знаете ли вы, что...

• Композитор Джерри Голдсмит придумал интересный способ создания нужных звуков: просто перекатывал шары из нержавеющей стали. Таким образом звучание стало органичным.
• Джон Чэмберс, создатель «обезьяньего грима», кроме прочего, придумал остроконечные уши мистера Спока из «Звездного пути».
• Джефф Бертон игравший Доджа, упал в обморок от жары во время съемок сцен в пустыне.
• Когда Чак произносил свою знаменитую речь о «вонючих лапах», у него был ужасный грипп. Так что голос актера звучал значительно и хрипло. Вдобавок ко всем страданиям, в сцене, когда за Чаком гнались обезьяны, ему пришлось бежать полуголым через заросли ядовитого плюща.
• Актерам, игравшим обезьян, приходилось во время еды смотреться в зеркало и пить через соломинку чтобы не испортить грим.
• В сценарии фильма женщины-дикарки ходили с обнаженной грудью, но Fox их «одела», чтобы не создавать проблем с рейтингом.
• Картина снималась в Аризоне.

MediaInfo

Полное имя : E:\Фильмы\The_Planet_Of_The_Apes_Pentalogy_BDrip_720\1.The.Planet.Of.The.Apes.1968.BDrip.720.DV.mkv
Формат : Matroska
Версия формата : Version 2
Размер файла : 7,57 Гбайт
Продолжительность : 1 ч. 52 м.
Режим общего битрейта : Переменный
Общий поток : 9671 Кбит/сек
Дата кодирования : UTC 2012-12-05 15:01:10
Программа кодирования : mkvmerge v4.4.0 ('Die Wiederkehr') сборка от Oct 31 2010 21:52:48
Библиотека кодирования : libebml v1.0.0 + libmatroska v1.0.0
Видео
Идентификатор : 1
Формат : AVC
Формат/Информация : Advanced Video Codec
Профиль формата : [url=mailto:[email protected]][email protected][/url]
Параметр CABAC формата : Да
Параметр ReFrames формата : 3 кадра
Режим смешивания : Header stripping
Идентификатор кодека : V_MPEG4/ISO/AVC
Продолжительность : 1 ч. 52 м.
Вид битрейта : Переменный
Битрейт : 4000 Кбит/сек
Максимальный битрейт : 14,0 Мбит/сек
Ширина : 1280 пикселей
Высота : 544 пикселя
Соотношение сторон : 2,35:1
Режим частоты кадров : Постоянный
Частота кадров : 23,976 кадра/сек
Цветовое пространство : YUV
Субдискретизация насыщенности : 4:2:0
Битовая глубина : 8 бит
Тип развёртки : Прогрессивная
Бит/(Пиксели*Кадры) : 0.240
Размер потока : 2,98 Гбайт (39%)
Библиотека кодирования : x264 core 125 r2200 999b753
Настройки программы : cabac=1 / ref=2 / deblock=1:-1:-1 / analyse=0x3:0x113 / me=hex / subme=6 / psy=1 / psy_rd=1.00:0.15 / mixed_ref=1 / me_range=16 / chroma_me=1 / trellis=1 / 8x8dct=1 / cqm=0 / deadzone=21,11 / fast_pskip=1 / chroma_qp_offset=-3 / threads=6 / lookahead_threads=1 / sliced_threads=0 / slices=4 / nr=0 / decimate=1 / interlaced=0 / bluray_compat=1 / constrained_intra=0 / bframes=3 / b_pyramid=1 / b_adapt=1 / b_bias=0 / direct=1 / weightb=1 / open_gop=1 / weightp=1 / keyint=24 / keyint_min=1 / scenecut=40 / intra_refresh=0 / rc_lookahead=24 / rc=2pass / mbtree=1 / bitrate=4000 / ratetol=1.0 / qcomp=0.60 / qpmin=0 / qpmax=69 / qpstep=4 / cplxblur=20.0 / qblur=0.5 / vbv_maxrate=14000 / vbv_bufsize=14000 / nal_hrd=vbr / ip_ratio=1.40 / aq=1:1.00
Язык : English
Default : Да
Forced : Нет
Аудио #1
Идентификатор : 2
Формат : DTS
Формат/Информация : Digital Theater Systems
Режим смешивания : Header stripping
Идентификатор кодека : A_DTS
Продолжительность : 1 ч. 52 м.
Вид битрейта : Постоянный
Битрейт : 1510 Кбит/сек
Каналы : 6 каналов
Расположение каналов : Front: L C R, Side: L R, LFE
Частота : 48,0 КГц
Битовая глубина : 24 бит
Метод сжатия : С потерями
Задержка видео : 11 мс.
Размер потока : 1,18 Гбайт (16%)
Заголовок : MVO, Omikron
Язык : Russian
Default : Нет
Forced : Нет
Аудио #2
Идентификатор : 3
Формат : DTS
Формат/Информация : Digital Theater Systems
Режим смешивания : Header stripping
Идентификатор кодека : A_DTS
Продолжительность : 1 ч. 52 м.
Вид битрейта : Постоянный
Битрейт : 755 Кбит/сек
Каналы : 6 каналов
Расположение каналов : Front: L C R, Side: L R, LFE
Частота : 48,0 КГц
Битовая глубина : 24 бит
Метод сжатия : С потерями
Задержка видео : 11 мс.
Размер потока : 605 Мбайт (8%)
Заголовок : DUB
Язык : Russian
Default : Нет
Forced : Нет
Аудио #3
Идентификатор : 4
Формат : DTS
Формат/Информация : Digital Theater Systems
Режим смешивания : Header stripping
Идентификатор кодека : A_DTS
Продолжительность : 1 ч. 52 м.
Вид битрейта : Постоянный
Битрейт : 1510 Кбит/сек
Каналы : 6 каналов
Расположение каналов : Front: L C R, Side: L R, LFE
Частота : 48,0 КГц
Битовая глубина : 24 бит
Метод сжатия : С потерями
Задержка видео : 11 мс.
Размер потока : 1,18 Гбайт (16%)
Заголовок : Zhivov
Язык : Russian
Default : Нет
Forced : Нет
Аудио #4
Идентификатор : 5
Формат : AC-3
Формат/Информация : Audio Coding 3
Расширение режима : CM (complete main)
Параметр Endianness формата : Big
Режим смешивания : Header stripping
Идентификатор кодека : A_AC3
Продолжительность : 1 ч. 52 м.
Вид битрейта : Постоянный
Битрейт : 384 Кбит/сек
Каналы : 6 каналов
Расположение каналов : Front: L C R, Side: L R, LFE
Частота : 48,0 КГц
Битовая глубина : 16 бит
Метод сжатия : С потерями
Задержка видео : 3 с. 500 мс.
Размер потока : 308 Мбайт (4%)
Заголовок : DVO
Язык : Russian
Default : Да
Forced : Нет
Аудио #5
Идентификатор : 6
Формат : DTS
Формат/Информация : Digital Theater Systems
Режим смешивания : Header stripping
Идентификатор кодека : A_DTS
Продолжительность : 1 ч. 52 м.
Вид битрейта : Постоянный
Битрейт : 1510 Кбит/сек
Каналы : 6 каналов
Расположение каналов : Front: L C R, Side: L R, LFE
Частота : 48,0 КГц
Битовая глубина : 24 бит
Метод сжатия : С потерями
Задержка видео : 11 мс.
Размер потока : 1,18 Гбайт (16%)
Язык : English
Default : Нет
Forced : Нет
Текст #1
Идентификатор : 7
Формат : UTF-8
Идентификатор кодека : S_TEXT/UTF8
Идентификатор кодека/Информация : UTF-8 Plain Text
Язык : Russian
Default : Да
Forced : Нет
Текст #2
Идентификатор : 8
Формат : UTF-8
Идентификатор кодека : S_TEXT/UTF8
Идентификатор кодека/Информация : UTF-8 Plain Text
Язык : English
Default : Нет
Forced : Нет
Меню
00:00:00.000 : en:00:00:00.000
00:03:26.998 : en:00:03:26.998
00:05:24.032 : en:00:05:24.032
00:11:36.487 : en:00:11:36.487
00:19:01.515 : en:00:19:01.515
00:21:10.728 : en:00:21:10.728
00:24:43.607 : en:00:24:43.607
00:27:52.379 : en:00:27:52.379
00:31:04.112 : en:00:31:04.112
00:36:14.506 : en:00:36:14.506
00:38:09.412 : en:00:38:09.412
00:42:57.450 : en:00:42:57.450
00:46:18.192 : en:00:46:18.192
00:48:08.385 : en:00:48:08.385
00:53:46.598 : en:00:53:46.598
01:00:15.612 : en:01:00:15.612
01:03:40.358 : en:01:03:40.358
01:10:58.546 : en:01:10:58.546
01:12:59.542 : en:01:12:59.542
01:16:37.718 : en:01:16:37.718
01:20:55.392 : en:01:20:55.392
01:27:04.344 : en:01:27:04.344
01:29:52.220 : en:01:29:52.220
01:34:18.027 : en:01:34:18.027
01:38:39.622 : en:01:38:39.622
01:43:44.427 : en:01:43:44.427
01:48:48.856 : en:01:48:48.856
01:51:17.671 : en:01:51:17.671
Скриншоты:

Под плaнетой обезьян / Beneath the Planet of the Apes

Под плaнетой обезьян / Beneath the Planet of the Apes (1970) [720p] BDRip
- The bizarre world you met in 'Planet of the Apes' was only the beginning... What lies beneath may be the end!» - Русское название: Под планетой обезьян
Оригинальное название: Beneath the Planet of the Apes
Год выпуска: 1970
Жанр: Фантастика, Боевик, Приключения
Описание фильма:
Это вторая серия из пяти, рассказывающих о жизни на Земле в конце 40-го века от Рождества Христова. Когда после катастрофы звездолета оставшиеся в живых астронавты попали в плен к жутким человекоподобным обезьянам, все думали, что это конец.
Много приключений было у людей, но, в конце концов, самый лучший и удачливый из них — Брент, вынужден отправиться на поиски своих соплеменников. Он знает, что маленькие группки изменившихся после атомного взрыва людей скрываются в совершенно секретном подземном городе и совершенно не желают ни с кем поддерживать отношения…
Режиссер: Тед Пост / Ted Post
Актеры: Джеймс Франсискус, Ким Хантер, Морис Эванс, Линда Харрисон, Пол Ричардс, Виктор Буоно, Джеймс Грегори, Джефф Кори, Natalie Trundy, Томас Гомес
Продолжительность: 01:34:42
Перевод: Многоголосый закадровый, Двухголосый закадровый , Одноголосый закадровый
Субтитры: Английскийе

Рейтинг MPAA: PG 13 – лицам до 13 лет обязательное присутствие родителей!!!
Дата мировой премьеры: 1 мая 1970
Видеокодек: MPEG-4 AVC
Битрейт видео: ~ 4000 kbps
Размер кадра: 1280x544
Качество видео: BDRip
Аудио:
1. DTS Русский 5.1 / 48 kHz / 1509 kbps / 24-bit (Многоголосый закадровый, студия «Омикрон»)
2. DTS Русский 5.1 / 48 kHz / 1509 kbps / 24- bit (Одноголосый закадровый, Ю.Живов)
3. Dolby Digital Русский 5.1 / 48 kHz / 448 kbps (Двухголосый закадровый, DVD Magic)
4. DTS Английский 5.1 / 48 kHz / 1509 kbps / 24-bit

MediaInfo

Полное имя : E:\Фильмы\The_Planet_Of_The_Apes_Pentalogy_BDrip_720\2.Beneath.The.Planet.Of.The.Apes.1970.BDrip.720.DV.mkv
Формат : Matroska
Версия формата : Version 2
Размер файла : 5,93 Гбайт
Продолжительность : 1 ч. 34 м.
Режим общего битрейта : Переменный
Общий поток : 8968 Кбит/сек
Дата кодирования : UTC 2012-12-06 08:36:54
Программа кодирования : mkvmerge v4.4.0 ('Die Wiederkehr') сборка от Oct 31 2010 21:52:48
Библиотека кодирования : libebml v1.0.0 + libmatroska v1.0.0
Видео
Идентификатор : 1
Формат : AVC
Формат/Информация : Advanced Video Codec
Профиль формата : [url=mailto:[email protected]][email protected][/url]
Параметр CABAC формата : Да
Параметр ReFrames формата : 3 кадра
Режим смешивания : Header stripping
Идентификатор кодека : V_MPEG4/ISO/AVC
Продолжительность : 1 ч. 34 м.
Вид битрейта : Переменный
Битрейт : 4000 Кбит/сек
Максимальный битрейт : 14,0 Мбит/сек
Ширина : 1280 пикселей
Высота : 544 пикселя
Соотношение сторон : 2,35:1
Режим частоты кадров : Постоянный
Частота кадров : 23,976 кадра/сек
Цветовое пространство : YUV
Субдискретизация насыщенности : 4:2:0
Битовая глубина : 8 бит
Тип развёртки : Прогрессивная
Бит/(Пиксели*Кадры) : 0.240
Размер потока : 2,52 Гбайт (43%)
Библиотека кодирования : x264 core 125 r2200 999b753
Настройки программы : cabac=1 / ref=2 / deblock=1:-1:-1 / analyse=0x3:0x113 / me=hex / subme=6 / psy=1 / psy_rd=1.00:0.15 / mixed_ref=1 / me_range=16 / chroma_me=1 / trellis=1 / 8x8dct=1 / cqm=0 / deadzone=21,11 / fast_pskip=1 / chroma_qp_offset=-3 / threads=6 / lookahead_threads=1 / sliced_threads=0 / slices=4 / nr=0 / decimate=1 / interlaced=0 / bluray_compat=1 / constrained_intra=0 / bframes=3 / b_pyramid=1 / b_adapt=1 / b_bias=0 / direct=1 / weightb=1 / open_gop=1 / weightp=1 / keyint=24 / keyint_min=1 / scenecut=40 / intra_refresh=0 / rc_lookahead=24 / rc=2pass / mbtree=1 / bitrate=4000 / ratetol=1.0 / qcomp=0.60 / qpmin=0 / qpmax=69 / qpstep=4 / cplxblur=20.0 / qblur=0.5 / vbv_maxrate=14000 / vbv_bufsize=14000 / nal_hrd=vbr / ip_ratio=1.40 / aq=1:1.00
Язык : English
Default : Да
Forced : Нет
Аудио #1
Идентификатор : 2
Формат : DTS
Формат/Информация : Digital Theater Systems
Режим смешивания : Header stripping
Идентификатор кодека : A_DTS
Продолжительность : 1 ч. 34 м.
Вид битрейта : Постоянный
Битрейт : 1510 Кбит/сек
Каналы : 6 каналов
Расположение каналов : Front: L C R, Side: L R, LFE
Частота : 48,0 КГц
Битовая глубина : 24 бит
Метод сжатия : С потерями
Размер потока : 1023 Мбайт (17%)
Заголовок : MVO_Omikron
Язык : Russian
Default : Да
Forced : Нет
Аудио #2
Идентификатор : 3
Формат : DTS
Формат/Информация : Digital Theater Systems
Режим смешивания : Header stripping
Идентификатор кодека : A_DTS
Продолжительность : 1 ч. 34 м.
Вид битрейта : Постоянный
Битрейт : 1510 Кбит/сек
Каналы : 6 каналов
Расположение каналов : Front: L C R, Side: L R, LFE
Частота : 48,0 КГц
Битовая глубина : 24 бит
Метод сжатия : С потерями
Размер потока : 1023 Мбайт (17%)
Заголовок : OVO_Zivov
Язык : Russian
Default : Нет
Forced : Нет
Аудио #3
Идентификатор : 4
Формат : AC-3
Формат/Информация : Audio Coding 3
Расширение режима : CM (complete main)
Параметр Endianness формата : Big
Режим смешивания : Header stripping
Идентификатор кодека : A_AC3
Продолжительность : 1 ч. 34 м.
Вид битрейта : Постоянный
Битрейт : 448 Кбит/сек
Каналы : 6 каналов
Расположение каналов : Front: L C R, Side: L R, LFE
Частота : 48,0 КГц
Битовая глубина : 16 бит
Метод сжатия : С потерями
Размер потока : 303 Мбайт (5%)
Заголовок : DVO
Язык : Russian
Default : Нет
Forced : Нет
Аудио #4
Идентификатор : 5
Формат : DTS
Формат/Информация : Digital Theater Systems
Режим смешивания : Header stripping
Идентификатор кодека : A_DTS
Продолжительность : 1 ч. 34 м.
Вид битрейта : Постоянный
Битрейт : 1510 Кбит/сек
Каналы : 6 каналов
Расположение каналов : Front: L C R, Side: L R, LFE
Частота : 48,0 КГц
Битовая глубина : 24 бит
Метод сжатия : С потерями
Размер потока : 1023 Мбайт (17%)
Язык : English
Default : Нет
Forced : Нет
Текст
Идентификатор : 6
Формат : UTF-8
Идентификатор кодека : S_TEXT/UTF8
Идентификатор кодека/Информация : UTF-8 Plain Text
Язык : English
Default : Да
Forced : Нет
Меню
00:00:00.000 : en:00:00:00.000
00:02:25.354 : en:00:02:25.354
00:05:28.161 : en:00:05:28.161
Скриншоты:

Бегство с плaнеты обезьян / Escape from the Planet of the Apes

Бегство с плaнеты обезьян / Escape from the Planet of the Apes (1971) [720p] BDRip
- «Meet baby Milo who has Washington terrified.» - Русское название: Бегство с планеты обезьян
Оригинальное название: Escape from the Planet of the Apes
Год выпуска: 1971
Жанр: Фантастика, Боевик, Приключения
Описание фильма:
Это третья серия из пяти, рассказывающих о жизни на Земле в конце 40-го века от Рождества Христова. Две самые продвинутые обезьяны — Зира и Корнелий — настолько далеко зашли в своих научных исследованиях, что обнаружили способ перемещения во времени и решили разобраться в причинах безобразий, происходящих на родной планете.
Для этого они отправляются в двадцатый век и оказываются в американском Лос-Анджелесе. Почему это они решили, что в таком виде в Америке можно разгуливать просто так, безнаказанно? Ошибочка вышла! Янки устраивают настоящее «сафари» на экзотические биологические объекты…
Режиссер: Дон Тейлор / Don Taylor
Актеры: Родди МакДауэлл, Ким Хантер, Брэдфорд Диллман, Natalie Trundy, Эрик Браден, Уильям Уиндом, Сэл Минео, Альберт Сэлми, Джон Рэндольф, Гарри Лоутер
Продолжительность: 01:37:32
Перевод: Многоголосый закадровый, Двухголосый закадровый , Одноголосый закадровый
Субтитры: Английскийе

Рейтинг MPAA: PG 13 – лицам до 13 лет обязательное присутствие родителей!!!
Дата мировой премьеры: 21 мая 1971
Видеокодек: MPEG-4 AVC
Битрейт видео: ~4000 kbps
Размер кадра: 1280x544
Качество видео: BDRip
Аудио:
1. DTS Русский 5.1 / 48 kHz / 1509 kbps / 24-bit (Многоголосый закадровый, студия «Омикрон»)
2. Dolby Digital Русский 2.0 / 48 kHz / 192 kbps (Двухголосый закадровый, DVD Magic)
3. DTS Русский 5.1 / 48 kHz / 1509 kbps / 24-bit (Одноголосый закадровый, Ю.Живов)
4. DTS Английский 5.1 / 48 kHz / 1509 kbps / 24-bit

MediaInfo

Полное имя : E:\Фильмы\The_Planet_Of_The_Apes_Pentalogy_BDrip_720\3.Escape.From.The.Planet.Of.The.Apes.1971.BDrip.720.DV.mkv
Формат : Matroska
Версия формата : Version 2
Размер файла : 5,93 Гбайт
Продолжительность : 1 ч. 37 м.
Режим общего битрейта : Переменный
Общий поток : 8704 Кбит/сек
Дата кодирования : UTC 2012-12-06 18:57:54
Программа кодирования : mkvmerge v4.4.0 ('Die Wiederkehr') сборка от Oct 31 2010 21:52:48
Библиотека кодирования : libebml v1.0.0 + libmatroska v1.0.0
Видео
Идентификатор : 1
Формат : AVC
Формат/Информация : Advanced Video Codec
Профиль формата : [url=mailto:[email protected]][email protected][/url]
Параметр CABAC формата : Да
Параметр ReFrames формата : 3 кадра
Режим смешивания : Header stripping
Идентификатор кодека : V_MPEG4/ISO/AVC
Продолжительность : 1 ч. 37 м.
Вид битрейта : Переменный
Битрейт : 4000 Кбит/сек
Максимальный битрейт : 14,0 Мбит/сек
Ширина : 1280 пикселей
Высота : 544 пикселя
Соотношение сторон : 2,35:1
Режим частоты кадров : Постоянный
Частота кадров : 23,976 кадра/сек
Цветовое пространство : YUV
Субдискретизация насыщенности : 4:2:0
Битовая глубина : 8 бит
Тип развёртки : Прогрессивная
Бит/(Пиксели*Кадры) : 0.240
Размер потока : 2,60 Гбайт (44%)
Библиотека кодирования : x264 core 125 r2200 999b753
Настройки программы : cabac=1 / ref=2 / deblock=1:-1:-1 / analyse=0x3:0x113 / me=hex / subme=6 / psy=1 / psy_rd=1.00:0.15 / mixed_ref=1 / me_range=16 / chroma_me=1 / trellis=1 / 8x8dct=1 / cqm=0 / deadzone=21,11 / fast_pskip=1 / chroma_qp_offset=-3 / threads=6 / lookahead_threads=1 / sliced_threads=0 / slices=4 / nr=0 / decimate=1 / interlaced=0 / bluray_compat=1 / constrained_intra=0 / bframes=3 / b_pyramid=1 / b_adapt=1 / b_bias=0 / direct=1 / weightb=1 / open_gop=1 / weightp=1 / keyint=24 / keyint_min=1 / scenecut=40 / intra_refresh=0 / rc_lookahead=24 / rc=2pass / mbtree=1 / bitrate=4000 / ratetol=1.0 / qcomp=0.60 / qpmin=0 / qpmax=69 / qpstep=4 / cplxblur=20.0 / qblur=0.5 / vbv_maxrate=14000 / vbv_bufsize=14000 / nal_hrd=vbr / ip_ratio=1.40 / aq=1:1.00
Язык : English
Default : Да
Forced : Нет
Аудио #1
Идентификатор : 2
Формат : DTS
Формат/Информация : Digital Theater Systems
Режим смешивания : Header stripping
Идентификатор кодека : A_DTS
Продолжительность : 1 ч. 37 м.
Вид битрейта : Постоянный
Битрейт : 1510 Кбит/сек
Каналы : 6 каналов
Расположение каналов : Front: L C R, Side: L R, LFE
Частота : 48,0 КГц
Битовая глубина : 24 бит
Метод сжатия : С потерями
Размер потока : 1,03 Гбайт (17%)
Заголовок : MVO_Omikron
Язык : Russian
Default : Да
Forced : Нет
Аудио #2
Идентификатор : 3
Формат : AC-3
Формат/Информация : Audio Coding 3
Расширение режима : CM (complete main)
Параметр Endianness формата : Big
Режим смешивания : Header stripping
Идентификатор кодека : A_AC3
Продолжительность : 1 ч. 37 м.
Вид битрейта : Постоянный
Битрейт : 192 Кбит/сек
Каналы : 2 канала
Расположение каналов : Front: L R
Частота : 48,0 КГц
Битовая глубина : 16 бит
Метод сжатия : С потерями
Размер потока : 134 Мбайт (2%)
Заголовок : DVO
Язык : Russian
Default : Нет
Forced : Нет
Аудио #3
Идентификатор : 4
Формат : DTS
Формат/Информация : Digital Theater Systems
Режим смешивания : Header stripping
Идентификатор кодека : A_DTS
Продолжительность : 1 ч. 37 м.
Вид битрейта : Постоянный
Битрейт : 1510 Кбит/сек
Каналы : 6 каналов
Расположение каналов : Front: L C R, Side: L R, LFE
Частота : 48,0 КГц
Битовая глубина : 24 бит
Метод сжатия : С потерями
Размер потока : 1,03 Гбайт (17%)
Заголовок : OVO_Zhivov
Язык : Russian
Default : Нет
Forced : Нет
Аудио #4
Идентификатор : 5
Формат : DTS
Формат/Информация : Digital Theater Systems
Режим смешивания : Header stripping
Идентификатор кодека : A_DTS
Продолжительность : 1 ч. 37 м.
Вид битрейта : Постоянный
Битрейт : 1510 Кбит/сек
Каналы : 6 каналов
Расположение каналов : Front: L C R, Side: L R, LFE
Частота : 48,0 КГц
Битовая глубина : 24 бит
Метод сжатия : С потерями
Размер потока : 1,03 Гбайт (17%)
Язык : English
Default : Нет
Forced : Нет
Текст
Идентификатор : 6
Формат : UTF-8
Идентификатор кодека : S_TEXT/UTF8
Идентификатор кодека/Информация : UTF-8 Plain Text
Язык : English
Default : Да
Forced : Нет
Меню
00:00:00.000 : en:00:00:00.000
00:04:15.505 : en:00:04:15.505
00:07:19.689 : en:00:07:19.689
00:11:50.543 : en:00:11:50.543
00:15:24.799 : en:00:15:24.799
00:17:33.511 : en:00:17:33.511
00:20:12.086 : en:00:20:12.086
00:22:22.967 : en:00:22:22.967
00:32:07.259 : en:00:32:07.259
00:35:44.934 : en:00:35:44.934
00:41:52.969 : en:00:41:52.969
00:45:33.522 : en:00:45:33.522
00:50:14.428 : en:00:50:14.428
00:55:31.203 : en:00:55:31.203
01:01:06.746 : en:01:01:06.746
01:03:07.784 : en:01:03:07.784
01:05:39.060 : en:01:05:39.060
01:10:17.296 : en:01:10:17.296
01:12:24.590 : en:01:12:24.590
01:15:43.789 : en:01:15:43.789
01:19:14.166 : en:01:19:14.166
01:23:24.708 : en:01:23:24.708
01:26:04.993 : en:01:26:04.993
01:27:35.500 : en:01:27:35.500
01:31:09.547 : en:01:31:09.547
01:36:02.757 : en:01:36:02.757
01:36:49.804 : en:01:36:49.804
Скриншоты:

Завоевание плaнеты обезьян / Conquest of the Planet of the Apes

Завоевание плaнеты обезьян / Conquest of the Planet of the Apes (1972) [720p] BDRip
- «All new! The revolt of the apes. The most awesome spectacle in the annals of science fiction!» - Русское название: Завоевание планеты обезьян
Оригинальное название: Conquest of the Planet of the Apes
Год выпуска: 1972
Жанр: Фантастика, Боевик, Приключения
Описание фильма:
Это четвертая серия из пяти, рассказывающих о жизни на Земле в конце 40-го века от Рождества Христова. Какому идиоту пришло в голову попытаться сделать милых дурашливых обезьянок домашними животными?
Уже никто не знает ответа на этот риторический вопрос, так как люди загнаны в подполье этими самыми симпатичными приматами и только могут изредка огрызаться и вспоминать те времена, когда поумневшие и заматеревшие обезьяны объявили войну человечеству…
Режиссер: Дж. Ли Томпсон / J. Lee Thompson
Актеры: Родди МакДауэлл, Дон Мюррэй, Natalie Trundy, Хари Родс, Северн Дарден, Лу Вагнер, Джон Рэндольф, Asa Maynor, Х. М. Вайнэнт, Дэвид Чоу
Продолжительность: 01:27:22
Перевод: Многоголосый закадровый, Двухголосый закадровый, Одноголосый закадровый
Субтитры: Английскийе

Рейтинг MPAA: PG 13 – лицам до 13 лет обязательное присутствие родителей!!!
Дата мировой премьеры: 29 июня 1972
Видеокодек: MPEG-4 AVC
Битрейт видео: ~ 3805 Кбит/сек
Размер кадра: 1280x544
Качество видео: BDRip
Аудио:
1. DTS Русский 5.1 / 48 kHz / 1509 kbps / 24-bit (Многоголосый закадровый, студия «Омикрон»)
2. DTS Русский 5.1 / 48 kHz / 768 kbps / 24-bit (Двухголосый закадровый, DVD Magic)
3. DTS-HD Русский 5.1 / 48 kHz / 1509 kbps / 24-bit (Одноголосый закадровый, Ю.Живов)
4. DTS Английский 5.1 / 48 kHz / 1509 kbps / 24-bit

MediaInfo

Полное имя : E:\Фильмы\The_Planet_Of_The_Apes_Pentalogy_BDrip_720\4.Conquest.Of.The.Planet.Of.The.Apes.1972.BDrip.720.DV.mkv
Формат : Matroska
Версия формата : Version 2
Размер файла : 5,66 Гбайт
Продолжительность : 1 ч. 27 м.
Режим общего битрейта : Переменный
Общий поток : 9273 Кбит/сек
Дата кодирования : UTC 2012-12-08 08:11:57
Программа кодирования : mkvmerge v4.4.0 ('Die Wiederkehr') сборка от Oct 31 2010 21:52:48
Библиотека кодирования : libebml v1.0.0 + libmatroska v1.0.0
Видео
Идентификатор : 1
Формат : AVC
Формат/Информация : Advanced Video Codec
Профиль формата : [url=mailto:[email protected]][email protected][/url]
Параметр CABAC формата : Да
Параметр ReFrames формата : 3 кадра
Режим смешивания : Header stripping
Идентификатор кодека : V_MPEG4/ISO/AVC
Продолжительность : 1 ч. 27 м.
Вид битрейта : Переменный
Битрейт : 3805 Кбит/сек
Номинальный битрейт : 4000 Кбит/сек
Максимальный битрейт : 14,0 Мбит/сек
Ширина : 1280 пикселей
Высота : 544 пикселя
Соотношение сторон : 2,35:1
Режим частоты кадров : Постоянный
Частота кадров : 23,976 кадра/сек
Цветовое пространство : YUV
Субдискретизация насыщенности : 4:2:0
Битовая глубина : 8 бит
Тип развёртки : Прогрессивная
Бит/(Пиксели*Кадры) : 0.228
Размер потока : 2,32 Гбайт (41%)
Библиотека кодирования : x264 core 125 r2200 999b753
Настройки программы : cabac=1 / ref=2 / deblock=1:-1:-1 / analyse=0x3:0x113 / me=hex / subme=6 / psy=1 / psy_rd=1.00:0.15 / mixed_ref=1 / me_range=16 / chroma_me=1 / trellis=1 / 8x8dct=1 / cqm=0 / deadzone=21,11 / fast_pskip=1 / chroma_qp_offset=-3 / threads=6 / lookahead_threads=1 / sliced_threads=0 / slices=4 / nr=0 / decimate=1 / interlaced=0 / bluray_compat=1 / constrained_intra=0 / bframes=3 / b_pyramid=1 / b_adapt=1 / b_bias=0 / direct=1 / weightb=1 / open_gop=1 / weightp=1 / keyint=24 / keyint_min=1 / scenecut=40 / intra_refresh=0 / rc_lookahead=24 / rc=2pass / mbtree=1 / bitrate=4000 / ratetol=1.0 / qcomp=0.60 / qpmin=0 / qpmax=69 / qpstep=4 / cplxblur=20.0 / qblur=0.5 / vbv_maxrate=14000 / vbv_bufsize=14000 / nal_hrd=vbr / ip_ratio=1.40 / aq=1:1.00
Язык : English
Default : Да
Forced : Нет
Аудио #1
Идентификатор : 2
Формат : DTS
Формат/Информация : Digital Theater Systems
Режим смешивания : Header stripping
Идентификатор кодека : A_DTS
Продолжительность : 1 ч. 27 м.
Вид битрейта : Постоянный
Битрейт : 1510 Кбит/сек
Каналы : 6 каналов
Расположение каналов : Front: L C R, Side: L R, LFE
Частота : 48,0 КГц
Битовая глубина : 24 бит
Метод сжатия : С потерями
Размер потока : 944 Мбайт (16%)
Заголовок : MVO_Omikron
Язык : Russian
Default : Да
Forced : Нет
Аудио #2
Идентификатор : 3
Формат : DTS
Формат/Информация : Digital Theater Systems
Режим смешивания : Header stripping
Идентификатор кодека : A_DTS
Продолжительность : 1 ч. 27 м.
Вид битрейта : Постоянный
Битрейт : 755 Кбит/сек
Каналы : 6 каналов
Расположение каналов : Front: L C R, Side: L R, LFE
Частота : 48,0 КГц
Битовая глубина : 24 бит
Метод сжатия : С потерями
Размер потока : 472 Мбайт (8%)
Заголовок : DVO
Язык : Russian
Default : Нет
Forced : Нет
Аудио #3
Идентификатор : 4
Формат : DTS
Формат/Информация : Digital Theater Systems
Режим смешивания : Header stripping
Идентификатор кодека : A_DTS
Продолжительность : 1 ч. 27 м.
Вид битрейта : Постоянный
Битрейт : 1510 Кбит/сек
Каналы : 6 каналов
Расположение каналов : Front: L C R, Side: L R, LFE
Частота : 48,0 КГц
Битовая глубина : 24 бит
Метод сжатия : С потерями
Размер потока : 944 Мбайт (16%)
Заголовок : Zhivov
Язык : Russian
Default : Нет
Forced : Нет
Аудио #4
Идентификатор : 5
Формат : DTS
Формат/Информация : Digital Theater Systems
Режим смешивания : Header stripping
Идентификатор кодека : A_DTS
Продолжительность : 1 ч. 27 м.
Вид битрейта : Постоянный
Битрейт : 1510 Кбит/сек
Каналы : 6 каналов
Расположение каналов : Front: L C R, Side: L R, LFE
Частота : 48,0 КГц
Битовая глубина : 24 бит
Метод сжатия : С потерями
Размер потока : 944 Мбайт (16%)
Язык : English
Default : Нет
Forced : Нет
Текст
Идентификатор : 6
Формат : UTF-8
Идентификатор кодека : S_TEXT/UTF8
Идентификатор кодека/Информация : UTF-8 Plain Text
Язык : English
Default : Да
Forced : Нет
Меню
00:00:00.000 : en:00:00:00.000
00:02:22.642 : en:00:02:22.642
00:05:03.845 : en:00:05:03.845
00:11:17.677 : en:00:11:17.677
00:14:08.598 : en:00:14:08.598
00:15:53.744 : en:00:15:53.744
00:19:31.545 : en:00:19:31.545
00:25:52.885 : en:00:25:52.885
00:28:05.434 : en:00:28:05.434
00:29:04.868 : en:00:29:04.868
00:31:37.062 : en:00:31:37.062
00:37:01.511 : en:00:37:01.511
00:41:23.690 : en:00:41:23.690
00:46:59.400 : en:00:46:59.400
00:51:28.377 : en:00:51:28.377
00:58:28.839 : en:00:58:28.839
01:05:03.274 : en:01:05:03.274
01:08:56.049 : en:01:08:56.049
01:16:21.368 : en:01:16:21.368
01:22:36.577 : en:01:22:36.577
01:26:54.209 : en:01:26:54.209
Скриншоты:

Битва за плaнету обезьян / Battle for the Planet of the Apes

Битва за плaнету обезьян / Battle for the Planet of the Apes (1973) [720p] BDRip
- «The final chapter in the incredible Apes saga. The most suspenseful showdown ever filmed as two civilizations battle for the right to inherit what's left of the earth!» - Русское название: Битва за планету обезьян
Оригинальное название: Battle for the Planet of the Apes
Год выпуска: 1973
Жанр: Фантастика, Боевик, Приключения
Описание фильма:
Все новые и новые опасности приносит как людям, так и обезьянам будущее. На карту поставлена сама возможность существования этих биологических видов. И уже всем становится понятно, что только совместные усилия и выход на новый уровень взаимодействия дадут шанс планете в надвигающейся череде катастроф…
Режиссер: Дж. Ли Томпсон / J. Lee Thompson
Актеры: Родди МакДауэлл, Клод Экинс, Natalie Trundy, Северн Дарден, Лью Эйрз, Пол Уильямс, Остин Стокер, Ной Кин, Ричард Истхэм, Франс Нуйен
Продолжительность: 01:36:26
Перевод: Многоголосый закадровый, Одноголосый закадровый
Субтитры: Английскийе

Рейтинг MPAA: PG 13 – лицам до 13 лет обязательное присутствие родителей!!!
Дата мировой премьеры: 15 июня 1973
Видеокодек: MPEG-4 AVC
Битрейт видео: ~ 4000 Кбит/сек
Размер кадра: 1280x544
Качество видео: BDRip
Аудио:
1. DTS Русский 5.1 / 48 kHz / 1509 kbps / 24-bit (Многоголосый закадровый, студия «Омикрон»)
2. DTS Русский 5.1 / 48 kHz / 1509 kbps / 24-bit (Одноголосый закадровый, Ю.Живов)
3. DTS Английский 5.1 / 48 kHz / 1509 kbps / 24-bit

MediaInfo

Полное имя : E:\Фильмы\The_Planet_Of_The_Apes_Pentalogy_BDrip_720\5.Battle.For.The.Planet.Of.The.Apes.1973.BDrip.720.DV.mkv
Формат : Matroska
Версия формата : Version 2
Размер файла : 5,74 Гбайт
Продолжительность : 1 ч. 36 м.
Режим общего битрейта : Переменный
Общий поток : 8522 Кбит/сек
Дата кодирования : UTC 2012-12-08 14:42:42
Программа кодирования : mkvmerge v4.4.0 ('Die Wiederkehr') сборка от Oct 31 2010 21:52:48
Библиотека кодирования : libebml v1.0.0 + libmatroska v1.0.0
Видео
Идентификатор : 1
Формат : AVC
Формат/Информация : Advanced Video Codec
Профиль формата : [url=mailto:[email protected]][email protected][/url]
Параметр CABAC формата : Да
Параметр ReFrames формата : 3 кадра
Режим смешивания : Header stripping
Идентификатор кодека : V_MPEG4/ISO/AVC
Продолжительность : 1 ч. 36 м.
Вид битрейта : Переменный
Битрейт : 4000 Кбит/сек
Максимальный битрейт : 14,0 Мбит/сек
Ширина : 1280 пикселей
Высота : 544 пикселя
Соотношение сторон : 2,35:1
Режим частоты кадров : Постоянный
Частота кадров : 23,976 кадра/сек
Цветовое пространство : YUV
Субдискретизация насыщенности : 4:2:0
Битовая глубина : 8 бит
Тип развёртки : Прогрессивная
Бит/(Пиксели*Кадры) : 0.240
Размер потока : 2,58 Гбайт (45%)
Библиотека кодирования : x264 core 125 r2200 999b753
Настройки программы : cabac=1 / ref=2 / deblock=1:-1:-1 / analyse=0x3:0x113 / me=hex / subme=6 / psy=1 / psy_rd=1.00:0.15 / mixed_ref=1 / me_range=16 / chroma_me=1 / trellis=1 / 8x8dct=1 / cqm=0 / deadzone=21,11 / fast_pskip=1 / chroma_qp_offset=-3 / threads=6 / lookahead_threads=1 / sliced_threads=0 / slices=4 / nr=0 / decimate=1 / interlaced=0 / bluray_compat=1 / constrained_intra=0 / bframes=3 / b_pyramid=1 / b_adapt=1 / b_bias=0 / direct=1 / weightb=1 / open_gop=1 / weightp=1 / keyint=24 / keyint_min=1 / scenecut=40 / intra_refresh=0 / rc_lookahead=24 / rc=2pass / mbtree=1 / bitrate=4000 / ratetol=1.0 / qcomp=0.60 / qpmin=0 / qpmax=69 / qpstep=4 / cplxblur=20.0 / qblur=0.5 / vbv_maxrate=14000 / vbv_bufsize=14000 / nal_hrd=vbr / ip_ratio=1.40 / aq=1:1.00
Язык : English
Default : Да
Forced : Нет
Аудио #1
Идентификатор : 2
Формат : DTS
Формат/Информация : Digital Theater Systems
Режим смешивания : Header stripping
Идентификатор кодека : A_DTS
Продолжительность : 1 ч. 36 м.
Вид битрейта : Постоянный
Битрейт : 1510 Кбит/сек
Каналы : 6 каналов
Расположение каналов : Front: L C R, Side: L R, LFE
Частота : 48,0 КГц
Битовая глубина : 24 бит
Метод сжатия : С потерями
Размер потока : 1,02 Гбайт (18%)
Заголовок : MVO_Omikron
Язык : Russian
Default : Да
Forced : Нет
Аудио #2
Идентификатор : 3
Формат : DTS
Формат/Информация : Digital Theater Systems
Режим смешивания : Header stripping
Идентификатор кодека : A_DTS
Продолжительность : 1 ч. 36 м.
Вид битрейта : Постоянный
Битрейт : 1510 Кбит/сек
Каналы : 6 каналов
Расположение каналов : Front: L C R, Side: L R, LFE
Частота : 48,0 КГц
Битовая глубина : 24 бит
Метод сжатия : С потерями
Размер потока : 1,02 Гбайт (18%)
Заголовок : OVO_Zhivov
Язык : Russian
Default : Нет
Forced : Нет
Аудио #3
Идентификатор : 4
Формат : DTS
Формат/Информация : Digital Theater Systems
Режим смешивания : Header stripping
Идентификатор кодека : A_DTS
Продолжительность : 1 ч. 36 м.
Вид битрейта : Постоянный
Битрейт : 1510 Кбит/сек
Каналы : 6 каналов
Расположение каналов : Front: L C R, Side: L R, LFE
Частота : 48,0 КГц
Битовая глубина : 24 бит
Метод сжатия : С потерями
Размер потока : 1,02 Гбайт (18%)
Язык : English
Default : Нет
Forced : Нет
Текст
Идентификатор : 5
Формат : UTF-8
Идентификатор кодека : S_TEXT/UTF8
Идентификатор кодека/Информация : UTF-8 Plain Text
Язык : English
Default : Да
Forced : Нет
Меню
00:00:00.000 : en:00:00:00.000
00:04:47.454 : en:00:04:47.454
00:09:15.013 : en:00:09:15.013
00:11:13.965 : en:00:11:13.965
00:15:46.696 : en:00:15:46.696
00:21:46.180 : en:00:21:46.180
00:24:41.188 : en:00:24:41.188
00:27:49.585 : en:00:27:49.585
00:31:52.953 : en:00:31:52.953
00:37:38.339 : en:00:37:38.339
00:40:25.548 : en:00:40:25.548
00:45:07.246 : en:00:45:07.246
00:46:53.727 : en:00:46:53.727
00:48:50.177 : en:00:48:50.177
00:52:09.209 : en:00:52:09.209
00:53:18.695 : en:00:53:18.695
00:55:16.521 : en:00:55:16.521
00:57:47.881 : en:00:57:47.881
01:00:51.398 : en:01:00:51.398
01:03:03.655 : en:01:03:03.655
01:08:43.202 : en:01:08:43.202
01:10:21.759 : en:01:10:21.759
01:19:13.791 : en:01:19:13.791
01:22:46.628 : en:01:22:46.628
01:24:19.262 : en:01:24:19.262
01:30:49.569 : en:01:30:49.569
01:32:20.285 : en:01:32:20.285
01:35:29.307 : en:01:35:29.307
Скриншоты:
-Раздача: 24/7-Не забываем говорить спасибо, Вам не сложно, а мне приятно)))
Прошу с раздачи не уходить! Скачал сам, дай и другим скачать!!!
Приятного просмотра)))
Other forum [Profile] [PM]
Display posts from previous:    
Reply to topic

The time now is: Today 11:47

All times are GMT + 3 Hours



You cannot post new topics in this forum
You cannot reply to topics in this forum
You cannot edit your posts in this forum
You cannot delete your posts in this forum
You cannot vote in polls in this forum
You cannot attach files in this forum
You cannot download files in this forum