Today is a free download without charge Download

Планета обезьян: Пенталогия – 40 лет эволюции / Planet of the Apes: 40-Year Evolution Collection (1968-1973) [1080p] BDRip

Reply to topic
 
Author
Message

Omen ®

Longevity: 8 years 5 months

Posts: 181087

Торрент-статистика

Post 13-Jan-2013 10:25

[Quote]

- Планета обезьян: Пенталогия – 40 лет эволюции /
Planet of the Apes: 40-Year Evolution Collection (1968-1973) [1080p] BDRip
- « Planet of the Apes » - Русское название: Планета обезьян: Пенталогия – 40 лет эволюции
Оригинальное название: Planet of the Apes: 40-Year Evolution Collection
Страна: США
Студия: Twentieth Century Fox
Год выпуска: 1968 / 1970 / 1971 / 1972 / 1973
Жанр: Фантастика, Боевик, Приключения
Режиссер: Франклин Дж. Шаффнер, Тед Пост, Дон Тейлор, Дж. Ли Томпсон
Продолжительность: 01:52:02 | 01:34:42 | 01:37:32 | 01:27:22 | 01:36:26
Описание коллекции:
Планета обезьян (англ. Planet of the Apes) — художественный фильм 1960—1970-х годов, основанный на одноимённом романе Пьера Буля. У фильма есть римейк и четыре сиквела, телевизионные и книжные адаптации, а также комиксы и видеоигры по их мотивам.
Сиквелы:
1. Планета обезьян (1968)
2. Под планетой обезьян (1970)
3. Бегство с планеты обезьян (1971)
4. Завоевание планеты обезьян (1972)
5. Битва за планету обезьян (1973)
6. Восстание планеты обезьян (2011)
Релиз: при поддержке SNAUTS-

Плaнета обезьян / Planet of the Apes

Плaнета обезьян / Planet of the Apes (1968) [1080p] BDRip
- «Hunted . . . haunted . . . wanted . . . like beasts of prey!» - Русское название: Планета обезьян
Оригинальное название: Planet of the Apes
Год выпуска: 1968
Жанр: Фантастика, Боевик, Приключения
Описание фильма:
После успешно выполненного задания космический корабль устремляется к Земле, хотя астронавты отчетливо понимают, что на земле из-за парадокса Эйнштейна уже прошло несколько столетий, а значит нет уже никого на планете, кто даже отдаленно мог бы назваться близким для них человеком.
Но когда звездолет терпит катастрофу на непонятной планете, совсем не похожей на добродушную матушку-Землю, оставшиеся в живых, но потерявшие все имущество космонавты вдруг с ужасом понимают, что круто попали…
Попали в плен к суровым и агрессивным человекоподобным монстрам, более похожим на горилл из их прошлой жизни. Где мы? И что происходит? Вот вопросы, на которые пока не видно ответа…
Режиссер: Франклин Дж. Шаффнер / Franklin J. Schaffner
Актеры: Чарлтон Хестон, Родди МакДауэлл, Ким Хантер, Морис Эванс, Джеймс Уитмор, Джеймс Дэйли, Линда Харрисон, Robert Gunner, Лу Вагнер, Вудроу Парфри
Продолжительность: 01:52:02
Перевод: Дублирвоанный, Многоголосый закадровый, Одноголосый закадровый
Субтитры: Английский, Русский

Рейтинг MPAA: PG 13 – лицам до 13 лет обязательное присутствие родителей!!!
Дата мировой премьеры: 8 февраля 1968
Дата DVD премьеры: 14 мая 2009, «Двадцатый Век Фокс СНГ»
Дата Blu-ray премьеры: 26 февраля 2009, «Двадцатый Век Фокс СНГ»
Видеокодек: MPEG-4 AVC
Битрейт видео: ~15889 kbps
Размер кадра: 1920x816
Качество видео: BDRip
Аудио:
1. DTS Русский 5.1 / 48 kHz / 1509 kbps / 24-bit (Многоголосый закадровый, студия «Омикрон»)
2. DTS Русский 5.1 / 48 kHz / 768 kbps / 24-bit (Дублированный, Blu-ray EUR)
3. DTS Русский 5.1 / 48 kHz / 1509 kbps / 24-bit (Одноголосый закадровый, Ю.Живов)
4. DTS Английский 5.1 / 48 kHz / 1509 kbps / 24-bit

Награды и номинации

Оскар, 1969 год
Номинации (2):
• Лучшие костюмы
• Лучший саундтрек к драматическому фильму

Знаете ли вы, что...

• Композитор Джерри Голдсмит придумал интересный способ создания нужных звуков: просто перекатывал шары из нержавеющей стали. Таким образом звучание стало органичным.
• Джон Чэмберс, создатель «обезьяньего грима», кроме прочего, придумал остроконечные уши мистера Спока из «Звездного пути».
• Джефф Бертон игравший Доджа, упал в обморок от жары во время съемок сцен в пустыне.
• Когда Чак произносил свою знаменитую речь о «вонючих лапах», у него был ужасный грипп. Так что голос актера звучал значительно и хрипло. Вдобавок ко всем страданиям, в сцене, когда за Чаком гнались обезьяны, ему пришлось бежать полуголым через заросли ядовитого плюща.
• Актерам, игравшим обезьян, приходилось во время еды смотреться в зеркало и пить через соломинку чтобы не испортить грим.
• В сценарии фильма женщины-дикарки ходили с обнаженной грудью, но Fox их «одела», чтобы не создавать проблем с рейтингом.
• Картина снималась в Аризоне.

MediaInfo

General
Complete name : P:\!КЛАССИКА ХД!\Planet.of.the.Apes.40-Year.Evolution.Collection.1080p.BluRay.Rus.Eng.HDCLUB-Skazhutin\Planet.of.the.Apes.1968.1080p.BluRay.3xRus.Eng.HDCLUB-Skazhutin.mkv
Format : Matroska
File size : 1.56 MiB
Duration : 1h 52mn
Overall bit rate : 1 949 bps
Movie name : Planet of the Apes (1968)
Encoded date : UTC 2010-02-22 21:41:31
Writing application : mkvmerge v5.9.0 ('On The Loose') built on Dec 9 2012 15:37:01
Writing library : libebml v1.3.0 + libmatroska v1.4.0
Cover : Yes / Yes
Video
ID : 1
Format : AVC
Format/Info : Advanced Video Codec
Format profile : [url=mailto:[email protected]][email protected][/url]
Format settings, CABAC : Yes
Format settings, ReFrames : 5 frames
Muxing mode : Container [email protected]
Codec ID : V_MPEG4/ISO/AVC
Duration : 1h 51mn
Width : 1 920 pixels
Height : 816 pixels
Display aspect ratio : 2.35:1
Frame rate : 23.976 fps
Resolution : 24 bits
Colorimetry : 4:2:0
Scan type : Progressive
Writing library : x264 core 129 r2230kMod 1cffe9f
Encoding settings : cabac=1 / ref=5 / deblock=1:-3:-3 / analyse=0x3:0x113 / me=umh / subme=11 / psy=1 / fade_compensate=0.00 / psy_rd=1.00:0.00 / mixed_ref=1 / me_range=48 / chroma_me=1 / trellis=2 / 8x8dct=1 / cqm=0 / deadzone=21,11 / fast_pskip=1 / chroma_qp_offset=-2 / threads=12 / lookahead_threads=2 / sliced_threads=0 / nr=0 / decimate=1 / interlaced=0 / bluray_compat=0 / constrained_intra=0 / bframes=9 / b_pyramid=2 / b_adapt=2 / b_bias=0 / direct=3 / weightb=1 / open_gop=0 / weightp=2 / keyint=250 / keyint_min=23 / scenecut=40 / intra_refresh=0 / rc_lookahead=40 / rc=crf / mbtree=0 / crf=18.0000 / qcomp=0.70 / qpmin=0 / qpmax=69 / qpstep=4 / vbv_maxrate=50000 / vbv_bufsize=62500 / crf_max=0.0 / nal_hrd=none / ip_ratio=1.30 / pb_ratio=1.20 / aq=1:0.70
matrix_coefficients : BT.709-5, BT.1361, IEC 61966-2-4 709, SMPTE RP177
Audio #1
ID : 2
Format : DTS
Format/Info : Digital Theater Systems
Codec ID : A_DTS
Duration : 1h 52mn
Bit rate mode : Constant
Bit rate : 1 510 Kbps
Channel(s) : 6 channels
Channel positions : Front: L C R, Surround: L R, LFE
Sampling rate : 48.0 KHz
Resolution : 24 bits
Stream size : 1.18 GiB
Title : DTS 5.1 @ 1536 kbps - MVO, Omikron
Language : Russian
Audio #2
ID : 3
Format : DTS
Format/Info : Digital Theater Systems
Codec ID : A_DTS
Duration : 1h 52mn
Bit rate mode : Constant
Bit rate : 755 Kbps
Channel(s) : 6 channels
Channel positions : Front: L C R, Surround: L R, LFE
Sampling rate : 48.0 KHz
Resolution : 24 bits
Stream size : 605 MiB
Title : DTS 5.1 @ 768 kbps - Dub, Blu-ray EUR
Language : Russian
Audio #3
ID : 4
Format : DTS
Format/Info : Digital Theater Systems
Codec ID : A_DTS
Duration : 1h 52mn
Bit rate mode : Constant
Bit rate : 1 510 Kbps
Channel(s) : 6 channels
Channel positions : Front: L C R, Surround: L R, LFE
Sampling rate : 48.0 KHz
Resolution : 24 bits
Stream size : 1.18 GiB
Title : DTS 5.1 @ 1536 kbps - VO, Jivov
Language : Russian
Audio #4
ID : 5
Format : DTS
Format/Info : Digital Theater Systems
Codec ID : A_DTS
Duration : 1h 52mn
Bit rate mode : Constant
Bit rate : 1 510 Kbps
Channel(s) : 6 channels
Channel positions : Front: L C R, Surround: L R, LFE
Sampling rate : 48.0 KHz
Resolution : 24 bits
Stream size : 1.18 GiB
Title : DTS 5.1 @ 1536 kbps
Text #1
ID : 6
Format : UTF-8
Codec ID : S_TEXT/UTF8
Codec ID/Info : UTF-8 Plain Text
Language : Russian
Text #2
ID : 7
Format : UTF-8
Codec ID : S_TEXT/UTF8
Codec ID/Info : UTF-8 Plain Text
Menu
00:00:00.000 : en:The Long Sleep
00:03:26.998 : en:Main Titles
00:05:24.032 : en:Crash Landing
00:11:36.487 : en:The Expedition
00:19:01.515 : en:The Seekers
00:21:10.727 : en:Life
00:24:43.607 : en:Scarecrows
00:27:52.379 : en:The Clothes Snatchers
00:31:04.112 : en:The Hunt
00:36:14.505 : en:Zira
00:38:09.412 : en:Dr. Zaius
00:42:57.449 : en:Cornelius
00:46:18.192 : en:"My Name Is Taylor"
00:48:08.385 : en:"It's A Stunt"
00:53:46.598 : en:No Escape
01:00:15.612 : en:"It's A Madhouse!"
01:03:40.358 : en:The Hearing
01:10:58.545 : en:New Identity
01:12:59.541 : en:Talking Heresy
01:16:37.718 : en:Zaius' Fear
01:20:55.392 : en:The Abduction
01:27:04.344 : en:The Forbidden Zone
01:29:52.220 : en:On the Beach
01:34:18.027 : en:The Cave
01:38:39.622 : en:The Hostage
01:43:44.426 : en:Saying Goodbye
01:48:48.855 : en:The Revelation
01:51:17.671 : en:Cast of Characters
Скриншоты:

Под плaнетой обезьян / Beneath the Planet of the Apes

Под плaнетой обезьян / Beneath the Planet of the Apes (1970) [1080p] BDRip
- The bizarre world you met in 'Planet of the Apes' was only the beginning... What lies beneath may be the end!» - Русское название: Под планетой обезьян
Оригинальное название: Beneath the Planet of the Apes
Год выпуска: 1970
Жанр: Фантастика, Боевик, Приключения
Описание фильма:
Это вторая серия из пяти, рассказывающих о жизни на Земле в конце 40-го века от Рождества Христова. Когда после катастрофы звездолета оставшиеся в живых астронавты попали в плен к жутким человекоподобным обезьянам, все думали, что это конец.
Много приключений было у людей, но, в конце концов, самый лучший и удачливый из них — Брент, вынужден отправиться на поиски своих соплеменников. Он знает, что маленькие группки изменившихся после атомного взрыва людей скрываются в совершенно секретном подземном городе и совершенно не желают ни с кем поддерживать отношения…
Режиссер: Тед Пост / Ted Post
Актеры: Джеймс Франсискус, Ким Хантер, Морис Эванс, Линда Харрисон, Пол Ричардс, Виктор Буоно, Джеймс Грегори, Джефф Кори, Natalie Trundy, Томас Гомес
Продолжительность: 01:34:42
Перевод: Многоголосый закадровый, Одноголосый закадровый
Субтитры: Английскийе

Рейтинг MPAA: PG 13 – лицам до 13 лет обязательное присутствие родителей!!!
Дата мировой премьеры: 1 мая 1970
Видеокодек: MPEG-4 AVC
Битрейт видео: ~18971 kbps
Размер кадра: 1920x812
Качество видео: BDRip
Аудио:
1. DTS Русский 5.1 / 48 kHz / 1509 kbps / 24-bit (Многоголосый закадровый, студия «Омикрон»)
2. DTS Русский 5.1 / 48 kHz / 1509 kbps / 24- bit (Одноголосый закадровый, Ю.Живов)
3. DTS Английский 5.1 / 48 kHz / 1509 kbps / 24-bit

MediaInfo

General
Complete name : P:\!КЛАССИКА ХД!\Planet.of.the.Apes.40-Year.Evolution.Collection.1080p.BluRay.Rus.Eng.HDCLUB-Skazhutin\Beneath.the.Planet.of.the.Apes.1970.1080p.BluRay.2xRus.Eng.HDCLUB-Skazhutin.mkv
Format : Matroska
File size : 11.0 MiB
Duration : 1h 34mn
Overall bit rate : 16.2 Kbps
Movie name : Beneath the Planet of the Apes (1970)
Encoded date : UTC 2010-02-22 21:41:31
Writing application : mkvmerge v5.9.0 ('On The Loose') built on Dec 9 2012 15:37:01
Writing library : libebml v1.3.0 + libmatroska v1.4.0
Cover : Yes / Yes
Video
ID : 1
Format : AVC
Format/Info : Advanced Video Codec
Format profile : [url=mailto:[email protected]][email protected][/url]
Format settings, CABAC : Yes
Format settings, ReFrames : 5 frames
Muxing mode : Container [email protected]
Codec ID : V_MPEG4/ISO/AVC
Duration : 1h 34mn
Width : 1 920 pixels
Height : 812 pixels
Display aspect ratio : 2.35:1
Frame rate : 23.976 fps
Resolution : 24 bits
Colorimetry : 4:2:0
Scan type : Progressive
Writing library : x264 core 129 r2230kMod 1cffe9f
Encoding settings : cabac=1 / ref=5 / deblock=1:-3:-3 / analyse=0x3:0x113 / me=umh / subme=11 / psy=1 / fade_compensate=0.00 / psy_rd=1.00:0.00 / mixed_ref=1 / me_range=48 / chroma_me=1 / trellis=2 / 8x8dct=1 / cqm=0 / deadzone=21,11 / fast_pskip=1 / chroma_qp_offset=-2 / threads=12 / lookahead_threads=2 / sliced_threads=0 / nr=0 / decimate=1 / interlaced=0 / bluray_compat=0 / constrained_intra=0 / bframes=9 / b_pyramid=2 / b_adapt=2 / b_bias=0 / direct=3 / weightb=1 / open_gop=0 / weightp=2 / keyint=250 / keyint_min=23 / scenecut=40 / intra_refresh=0 / rc_lookahead=40 / rc=crf / mbtree=0 / crf=18.0000 / qcomp=0.70 / qpmin=0 / qpmax=69 / qpstep=4 / vbv_maxrate=50000 / vbv_bufsize=62500 / crf_max=0.0 / nal_hrd=none / ip_ratio=1.30 / pb_ratio=1.20 / aq=1:0.70
matrix_coefficients : BT.709-5, BT.1361, IEC 61966-2-4 709, SMPTE RP177
Audio #1
ID : 2
Format : DTS
Format/Info : Digital Theater Systems
Codec ID : A_DTS
Duration : 1h 34mn
Bit rate mode : Constant
Bit rate : 1 510 Kbps
Channel(s) : 6 channels
Channel positions : Front: L C R, Surround: L R, LFE
Sampling rate : 48.0 KHz
Resolution : 24 bits
Stream size : 1 023 MiB
Title : DTS 5.1 @ 1536 kbps - MVO, Omikron
Language : Russian
Audio #2
ID : 3
Format : DTS
Format/Info : Digital Theater Systems
Codec ID : A_DTS
Duration : 1h 34mn
Bit rate mode : Constant
Bit rate : 1 510 Kbps
Channel(s) : 6 channels
Channel positions : Front: L C R, Surround: L R, LFE
Sampling rate : 48.0 KHz
Resolution : 24 bits
Stream size : 1 023 MiB
Title : DTS 5.1 @ 1536 kbps - VO, Jivov
Language : Russian
Audio #3
ID : 4
Format : DTS
Format/Info : Digital Theater Systems
Codec ID : A_DTS
Duration : 1h 34mn
Bit rate mode : Constant
Bit rate : 1 510 Kbps
Channel(s) : 6 channels
Channel positions : Front: L C R, Surround: L R, LFE
Sampling rate : 48.0 KHz
Resolution : 24 bits
Stream size : 1 023 MiB
Title : DTS 5.1 @ 1536 kbps
Text
ID : 5
Format : UTF-8
Codec ID : S_TEXT/UTF8
Codec ID/Info : UTF-8 Plain Text
Menu
00:00:00.000 : en:The Revelation
00:02:25.354 : en:Main Titles
00:05:28.161 : en:The Same Trajectory
00:09:20.310 : en:Brent and Nova
00:16:51.719 : en:Ursus' Speech
00:22:45.447 : en:The Steambath
00:24:05.611 : en:Sanctuary
00:31:24.633 : en:Capture
00:33:54.741 : en:Military Training
00:35:08.940 : en:Escape
00:38:29.057 : en:The Chase
00:41:12.303 : en:Welcome Home
00:43:56.634 : en:The Eve of a Holy War
00:49:20.875 : en:Following the Hum
00:53:51.186 : en:Force of Evil
00:56:51.700 : en:The Almighty Bomb
00:59:40.535 : en:Interrogation
01:07:53.361 : en:Apes on the March
01:13:31.407 : en:The Inmost Self
01:18:10.603 : en:Taylor
01:24:46.957 : en:The Apes Attack
01:26:53.083 : en:Losing Nova
01:29:23.316 : en:Doomsday
01:33:49.833 : en:End Titles
Скриншоты:

Бегство с плaнеты обезьян / Escape from the Planet of the Apes

Бегство с плaнеты обезьян / Escape from the Planet of the Apes (1971) [1080p] BDRip
- «Meet baby Milo who has Washington terrified.» - Русское название: Бегство с планеты обезьян
Оригинальное название: Escape from the Planet of the Apes
Год выпуска: 1971
Жанр: Фантастика, Боевик, Приключения
Описание фильма:
Это третья серия из пяти, рассказывающих о жизни на Земле в конце 40-го века от Рождества Христова. Две самые продвинутые обезьяны — Зира и Корнелий — настолько далеко зашли в своих научных исследованиях, что обнаружили способ перемещения во времени и решили разобраться в причинах безобразий, происходящих на родной планете.
Для этого они отправляются в двадцатый век и оказываются в американском Лос-Анджелесе. Почему это они решили, что в таком виде в Америке можно разгуливать просто так, безнаказанно? Ошибочка вышла! Янки устраивают настоящее «сафари» на экзотические биологические объекты…
Режиссер: Дон Тейлор / Don Taylor
Актеры: Родди МакДауэлл, Ким Хантер, Брэдфорд Диллман, Natalie Trundy, Эрик Браден, Уильям Уиндом, Сэл Минео, Альберт Сэлми, Джон Рэндольф, Гарри Лоутер
Продолжительность: 01:37:32
Перевод: Многоголосый закадровый, Одноголосый закадровый
Субтитры: Английскийе

Рейтинг MPAA: PG 13 – лицам до 13 лет обязательное присутствие родителей!!!
Дата мировой премьеры: 21 мая 1971
Видеокодек: MPEG-4 AVC
Битрейт видео: ~18705 kbps
Размер кадра: 1920x812
Качество видео: BDRip
Аудио:
1. DTS Русский 5.1 / 48 kHz / 1509 kbps / 24-bit (Многоголосый закадровый, студия «Омикрон»)
2. DTS Русский 5.1 / 48 kHz / 1509 kbps / 24-bit (Одноголосый закадровый, Ю.Живов)
3. DTS Английский 5.1 / 48 kHz / 1509 kbps / 24-bit

MediaInfo

General
Complete name : P:\!КЛАССИКА ХД!\Planet.of.the.Apes.40-Year.Evolution.Collection.1080p.BluRay.Rus.Eng.HDCLUB-Skazhutin\Escape.from.the.Planet.of.the.Apes.1971.1080p.BluRay.2xRus.Eng.HDCLUB-Skazhutin.mkv
Format : Matroska
File size : 23.8 MiB
Duration : 1h 37mn
Overall bit rate : 34.0 Kbps
Movie name : Escape from the Planet of the Apes (1971)
Encoded date : UTC 2010-02-22 21:41:31
Writing application : mkvmerge v5.9.0 ('On The Loose') built on Dec 9 2012 15:37:01
Writing library : libebml v1.3.0 + libmatroska v1.4.0
Cover : Yes / Yes
Video
ID : 1
Format : AVC
Format/Info : Advanced Video Codec
Format profile : [url=mailto:[email protected]][email protected][/url]
Format settings, CABAC : Yes
Format settings, ReFrames : 5 frames
Muxing mode : Container [email protected]
Codec ID : V_MPEG4/ISO/AVC
Duration : 1h 37mn
Width : 1 920 pixels
Height : 812 pixels
Display aspect ratio : 2.35:1
Frame rate : 23.976 fps
Resolution : 24 bits
Colorimetry : 4:2:0
Scan type : Progressive
Writing library : x264 core 129 r2230kMod 1cffe9f
Encoding settings : cabac=1 / ref=5 / deblock=1:-3:-3 / analyse=0x3:0x113 / me=umh / subme=11 / psy=1 / fade_compensate=0.00 / psy_rd=1.00:0.00 / mixed_ref=1 / me_range=48 / chroma_me=1 / trellis=2 / 8x8dct=1 / cqm=0 / deadzone=21,11 / fast_pskip=1 / chroma_qp_offset=-2 / threads=12 / lookahead_threads=2 / sliced_threads=0 / nr=0 / decimate=1 / interlaced=0 / bluray_compat=0 / constrained_intra=0 / bframes=9 / b_pyramid=2 / b_adapt=2 / b_bias=0 / direct=3 / weightb=1 / open_gop=0 / weightp=2 / keyint=250 / keyint_min=23 / scenecut=40 / intra_refresh=0 / rc_lookahead=40 / rc=crf / mbtree=0 / crf=18.0000 / qcomp=0.70 / qpmin=0 / qpmax=69 / qpstep=4 / vbv_maxrate=50000 / vbv_bufsize=62500 / crf_max=0.0 / nal_hrd=none / ip_ratio=1.30 / pb_ratio=1.20 / aq=1:0.70
matrix_coefficients : BT.709-5, BT.1361, IEC 61966-2-4 709, SMPTE RP177
Audio #1
ID : 2
Format : DTS
Format/Info : Digital Theater Systems
Codec ID : A_DTS
Duration : 1h 37mn
Bit rate mode : Constant
Bit rate : 1 510 Kbps
Channel(s) : 6 channels
Channel positions : Front: L C R, Surround: L R, LFE
Sampling rate : 48.0 KHz
Resolution : 24 bits
Stream size : 1.03 GiB
Title : DTS 5.1 @ 1536 kbps - MVO, Omikron
Language : Russian
Audio #2
ID : 3
Format : DTS
Format/Info : Digital Theater Systems
Codec ID : A_DTS
Duration : 1h 37mn
Bit rate mode : Constant
Bit rate : 1 510 Kbps
Channel(s) : 6 channels
Channel positions : Front: L C R, Surround: L R, LFE
Sampling rate : 48.0 KHz
Resolution : 24 bits
Stream size : 1.03 GiB
Title : DTS 5.1 @ 1536 kbps - VO, Jivov
Language : Russian
Audio #3
ID : 4
Format : DTS
Format/Info : Digital Theater Systems
Codec ID : A_DTS
Duration : 1h 37mn
Bit rate mode : Constant
Bit rate : 1 510 Kbps
Channel(s) : 6 channels
Channel positions : Front: L C R, Surround: L R, LFE
Sampling rate : 48.0 KHz
Resolution : 24 bits
Stream size : 1.03 GiB
Title : DTS 5.1 @ 1536 kbps
Text
ID : 5
Format : UTF-8
Codec ID : S_TEXT/UTF8
Codec ID/Info : UTF-8 Plain Text
Menu
00:00:00.000 : en:Pickup and Recovery
00:04:15.505 : en:Main Titles
00:07:19.689 : en:Playing Dumb
00:11:50.543 : en:Drs. Dixon & Branton
00:15:24.798 : en:"I Loathe Bananas"
00:17:33.510 : en:Introductions
00:20:12.085 : en:In the News
00:22:22.966 : en:The Presidential Inquiry
00:32:07.258 : en:Hasslein's Theory
00:35:44.934 : en:Toast of the Town
00:41:52.968 : en:Zira's Delicate Condition
00:45:33.522 : en:Hasslein's Fear
00:50:14.428 : en:How It All Started
00:55:31.202 : en:Sodium Pentothal
01:01:06.746 : en:The Commision
01:03:07.784 : en:Boiling Point
01:05:39.060 : en:On the Run
01:10:17.296 : en:Stevie's Idea
01:12:24.590 : en:Armando's Circus
01:15:43.789 : en:Time to Go
01:19:14.166 : en:Saying Goodbye
01:23:24.708 : en:The Oil Field
01:26:04.993 : en:In Hasslein's Sights
01:27:35.500 : en:Aboard the Derelict
01:31:09.547 : en:Confrontation
01:36:02.756 : en:Simian Survival
01:36:49.804 : en:End Titles
Скриншоты:

Завоевание плaнеты обезьян / Conquest of the Planet of the Apes

Завоевание плaнеты обезьян / Conquest of the Planet of the Apes (1972) [1080p] BDRip
- «All new! The revolt of the apes. The most awesome spectacle in the annals of science fiction!» - Русское название: Завоевание планеты обезьян
Оригинальное название: Conquest of the Planet of the Apes
Год выпуска: 1972
Жанр: Фантастика, Боевик, Приключения
Описание фильма:
Это четвертая серия из пяти, рассказывающих о жизни на Земле в конце 40-го века от Рождества Христова. Какому идиоту пришло в голову попытаться сделать милых дурашливых обезьянок домашними животными?
Уже никто не знает ответа на этот риторический вопрос, так как люди загнаны в подполье этими самыми симпатичными приматами и только могут изредка огрызаться и вспоминать те времена, когда поумневшие и заматеревшие обезьяны объявили войну человечеству…
Режиссер: Дж. Ли Томпсон / J. Lee Thompson
Актеры: Родди МакДауэлл, Дон Мюррэй, Natalie Trundy, Хари Родс, Северн Дарден, Лу Вагнер, Джон Рэндольф, Asa Maynor, Х. М. Вайнэнт, Дэвид Чоу
Продолжительность: 01:27:22
Перевод: Многоголосый закадровый, Одноголосый закадровый
Субтитры: Английскийе

Рейтинг MPAA: PG 13 – лицам до 13 лет обязательное присутствие родителей!!!
Дата мировой премьеры: 29 июня 1972
Видеокодек: MPEG-4 AVC
Битрейт видео: ~17897 kbps
Размер кадра: 1920x812
Качество видео: BDRip
Аудио:
1. DTS Русский 5.1 / 48 kHz / 1509 kbps / 24-bit (Многоголосый закадровый, студия «Омикрон»)
2. DTS-HD Русский 5.1 / 48 kHz / 1509 kbps / 24-bit (Одноголосый закадровый, Ю.Живов)
3. DTS Английский 5.1 / 48 kHz / 1509 kbps / 24-bit

MediaInfo

General
Complete name : P:\!КЛАССИКА ХД!\Planet.of.the.Apes.40-Year.Evolution.Collection.1080p.BluRay.Rus.Eng.HDCLUB-Skazhutin\Conquest.of.the.Planet.of.the.Apes.1972.1080p.BluRay.2xRus.Eng.HDCLUB-Skazhutin.mkv
Format : Matroska
File size : 25.1 MiB
Duration : 1h 27mn
Overall bit rate : 40.1 Kbps
Movie name : Conquest of the Planet of the Apes (1972)
Encoded date : UTC 2010-02-22 21:41:31
Writing application : mkvmerge v5.9.0 ('On The Loose') built on Dec 9 2012 15:37:01
Writing library : libebml v1.3.0 + libmatroska v1.4.0
Cover : Yes / Yes
Video
ID : 1
Format : AVC
Format/Info : Advanced Video Codec
Format profile : [url=mailto:[email protected]][email protected][/url]
Format settings, CABAC : Yes
Format settings, ReFrames : 5 frames
Muxing mode : Container [email protected]
Codec ID : V_MPEG4/ISO/AVC
Duration : 1h 27mn
Width : 1 920 pixels
Height : 812 pixels
Display aspect ratio : 2.35:1
Frame rate : 23.976 fps
Resolution : 24 bits
Colorimetry : 4:2:0
Scan type : Progressive
Writing library : x264 core 129 r2230kMod 1cffe9f
Encoding settings : cabac=1 / ref=5 / deblock=1:-3:-3 / analyse=0x3:0x113 / me=umh / subme=11 / psy=1 / fade_compensate=0.00 / psy_rd=1.00:0.00 / mixed_ref=1 / me_range=48 / chroma_me=1 / trellis=2 / 8x8dct=1 / cqm=0 / deadzone=21,11 / fast_pskip=1 / chroma_qp_offset=-2 / threads=12 / lookahead_threads=2 / sliced_threads=0 / nr=0 / decimate=1 / interlaced=0 / bluray_compat=0 / constrained_intra=0 / bframes=9 / b_pyramid=2 / b_adapt=2 / b_bias=0 / direct=3 / weightb=1 / open_gop=0 / weightp=2 / keyint=250 / keyint_min=23 / scenecut=40 / intra_refresh=0 / rc_lookahead=40 / rc=crf / mbtree=0 / crf=19.0000 / qcomp=0.70 / qpmin=0 / qpmax=69 / qpstep=4 / vbv_maxrate=50000 / vbv_bufsize=62500 / crf_max=0.0 / nal_hrd=none / ip_ratio=1.30 / pb_ratio=1.20 / aq=1:0.70
matrix_coefficients : BT.709-5, BT.1361, IEC 61966-2-4 709, SMPTE RP177
Audio #1
ID : 2
Format : DTS
Format/Info : Digital Theater Systems
Codec ID : A_DTS
Duration : 1h 27mn
Bit rate mode : Constant
Bit rate : 1 510 Kbps
Channel(s) : 6 channels
Channel positions : Front: L C R, Surround: L R, LFE
Sampling rate : 48.0 KHz
Resolution : 24 bits
Stream size : 944 MiB
Title : DTS 5.1 @ 1536 kbps - MVO, Omikron
Language : Russian
Audio #2
ID : 3
Format : DTS
Format/Info : Digital Theater Systems
Codec ID : A_DTS
Duration : 1h 27mn
Bit rate mode : Constant
Bit rate : 1 510 Kbps
Channel(s) : 6 channels
Channel positions : Front: L C R, Surround: L R, LFE
Sampling rate : 48.0 KHz
Resolution : 24 bits
Stream size : 944 MiB
Title : DTS 5.1 @ 1536 kbps - VO, Jivov
Language : Russian
Audio #3
ID : 4
Format : DTS
Format/Info : Digital Theater Systems
Codec ID : A_DTS
Duration : 1h 27mn
Bit rate mode : Constant
Bit rate : 1 510 Kbps
Channel(s) : 6 channels
Channel positions : Front: L C R, Surround: L R, LFE
Sampling rate : 48.0 KHz
Resolution : 24 bits
Stream size : 944 MiB
Title : DTS 5.1 @ 1536 kbps
Text
ID : 5
Format : UTF-8
Codec ID : S_TEXT/UTF8
Codec ID/Info : UTF-8 Plain Text
Menu
00:00:00.000 : en:Main Titles
00:02:22.642 : en:Armando & Caesar
00:05:03.845 : en:From Pets to Slaves
00:11:17.677 : en:A Talking Ape?
00:14:08.598 : en:The Alternate Plan
00:15:53.744 : en:Armando in Custody
00:19:31.545 : en:Hiding in the Open
00:25:52.885 : en:In Training
00:28:05.434 : en:The Females Arrive
00:29:04.868 : en:The Auction
00:31:37.062 : en:Caesar on the Inside
00:37:01.511 : en:The Authenticator
00:41:23.690 : en:Seeds of Rebellion
00:46:59.400 : en:Macdonald's Help
00:51:28.377 : en:Caught & Tortured
00:58:28.839 : en:Revolt of the Apes
01:05:03.274 : en:Night of Violence
01:08:56.049 : en:Riot Control
01:16:21.368 : en:Under Attack
01:22:36.577 : en:Planet of the Apes
01:26:54.209 : en:End Titles
Скриншоты:

Битва за плaнету обезьян / Battle for the Planet of the Apes

Битва за плaнету обезьян / Battle for the Planet of the Apes (1973) [1080p] BDRip
- «The final chapter in the incredible Apes saga. The most suspenseful showdown ever filmed as two civilizations battle for the right to inherit what's left of the earth!» - Русское название: Битва за планету обезьян
Оригинальное название: Battle for the Planet of the Apes
Год выпуска: 1973
Жанр: Фантастика, Боевик, Приключения
Описание фильма:
Все новые и новые опасности приносит как людям, так и обезьянам будущее. На карту поставлена сама возможность существования этих биологических видов. И уже всем становится понятно, что только совместные усилия и выход на новый уровень взаимодействия дадут шанс планете в надвигающейся череде катастроф…
Режиссер: Дж. Ли Томпсон / J. Lee Thompson
Актеры: Родди МакДауэлл, Клод Экинс, Natalie Trundy, Северн Дарден, Лью Эйрз, Пол Уильямс, Остин Стокер, Ной Кин, Ричард Истхэм, Франс Нуйен
Продолжительность: 01:36:26
Перевод: Многоголосый закадровый, Одноголосый закадровый
Субтитры: Английскийе

Рейтинг MPAA: PG 13 – лицам до 13 лет обязательное присутствие родителей!!!
Дата мировой премьеры: 15 июня 1973
Видеокодек: MPEG-4 AVC
Битрейт видео: ~15103 kbps
Размер кадра: 1920x812
Качество видео: BDRip
Аудио:
1. DTS Русский 5.1 / 48 kHz / 1509 kbps / 24-bit (Многоголосый закадровый, студия «Омикрон»)
2. DTS Русский 5.1 / 48 kHz / 1509 kbps / 24-bit (Одноголосый закадровый, Ю.Живов)
3. DTS Английский 5.1 / 48 kHz / 1509 kbps / 24-bit

MediaInfo

General
Complete name : P:\!КЛАССИКА ХД!\Planet.of.the.Apes.40-Year.Evolution.Collection.1080p.BluRay.Rus.Eng.HDCLUB-Skazhutin\Battle.for.the.Planet.of.the.Apes.1973.1080p.BluRay.2xRus.Eng.HDCLUB-Skazhutin.mkv
Format : Matroska
File size : 27.6 MiB
Duration : 1h 36mn
Overall bit rate : 40.0 Kbps
Movie name : Battle for the Planet of the Apes (1973)
Encoded date : UTC 2010-02-22 21:41:31
Writing application : mkvmerge v5.9.0 ('On The Loose') built on Dec 9 2012 15:37:01
Writing library : libebml v1.3.0 + libmatroska v1.4.0
Cover : Yes / Yes
Video
ID : 1
Format : AVC
Format/Info : Advanced Video Codec
Format profile : [url=mailto:[email protected]][email protected][/url]
Format settings, CABAC : Yes
Format settings, ReFrames : 5 frames
Muxing mode : Container profile=Unknown[email protected]
Codec ID : V_MPEG4/ISO/AVC
Duration : 1h 36mn
Width : 1 920 pixels
Height : 812 pixels
Display aspect ratio : 2.35:1
Frame rate : 23.976 fps
Resolution : 24 bits
Colorimetry : 4:2:0
Scan type : Progressive
Writing library : x264 core 129 r2230kMod 1cffe9f
Encoding settings : cabac=1 / ref=5 / deblock=1:-3:-3 / analyse=0x3:0x113 / me=umh / subme=11 / psy=1 / fade_compensate=0.00 / psy_rd=1.00:0.00 / mixed_ref=1 / me_range=48 / chroma_me=1 / trellis=2 / 8x8dct=1 / cqm=0 / deadzone=21,11 / fast_pskip=1 / chroma_qp_offset=-2 / threads=12 / lookahead_threads=2 / sliced_threads=0 / nr=0 / decimate=1 / interlaced=0 / bluray_compat=0 / constrained_intra=0 / bframes=9 / b_pyramid=2 / b_adapt=2 / b_bias=0 / direct=3 / weightb=1 / open_gop=0 / weightp=2 / keyint=250 / keyint_min=23 / scenecut=40 / intra_refresh=0 / rc_lookahead=40 / rc=crf / mbtree=0 / crf=18.0000 / qcomp=0.70 / qpmin=0 / qpmax=69 / qpstep=4 / vbv_maxrate=50000 / vbv_bufsize=62500 / crf_max=0.0 / nal_hrd=none / ip_ratio=1.30 / pb_ratio=1.20 / aq=1:0.70
matrix_coefficients : BT.709-5, BT.1361, IEC 61966-2-4 709, SMPTE RP177
Audio #1
ID : 2
Format : DTS
Format/Info : Digital Theater Systems
Codec ID : A_DTS
Duration : 1h 36mn
Bit rate mode : Constant
Bit rate : 1 510 Kbps
Channel(s) : 6 channels
Channel positions : Front: L C R, Surround: L R, LFE
Sampling rate : 48.0 KHz
Resolution : 24 bits
Stream size : 1.02 GiB
Title : DTS 5.1 @ 1536 kbps - MVO, Omikron
Language : Russian
Audio #2
ID : 3
Format : DTS
Format/Info : Digital Theater Systems
Codec ID : A_DTS
Duration : 1h 36mn
Bit rate mode : Constant
Bit rate : 1 510 Kbps
Channel(s) : 6 channels
Channel positions : Front: L C R, Surround: L R, LFE
Sampling rate : 48.0 KHz
Resolution : 24 bits
Stream size : 1.02 GiB
Title : DTS 5.1 @ 1536 kbps - VO, Jivov
Language : Russian
Audio #3
ID : 4
Format : DTS
Format/Info : Digital Theater Systems
Codec ID : A_DTS
Duration : 1h 36mn
Bit rate mode : Constant
Bit rate : 1 510 Kbps
Channel(s) : 6 channels
Channel positions : Front: L C R, Surround: L R, LFE
Sampling rate : 48.0 KHz
Resolution : 24 bits
Stream size : 1.02 GiB
Title : DTS 5.1 @ 1536 kbps
Text
ID : 5
Format : UTF-8
Codec ID : S_TEXT/UTF8
Codec ID/Info : UTF-8 Plain Text
Menu
00:00:00.000 : en:The Lawgiver
00:04:47.454 : en:Main Titles
00:09:15.013 : en:Ape Shall Never Kill Ape
00:11:13.965 : en:The Unspeakable
00:15:46.696 : en:Pessimist or Prophet?
00:21:46.180 : en:Self-Protection
00:24:41.188 : en:Journey to the Dead City
00:27:49.585 : en:Intruder Alert
00:31:52.953 : en:The Archives
00:37:38.339 : en:Under Fire
00:40:25.548 : en:Narrow Escape
00:45:07.246 : en:Spies in Ape City
00:46:53.727 : en:Meeting of the Council
00:48:50.177 : en:The Governor's Orders
00:52:09.209 : en:Preparing for War
00:53:18.695 : en:The Plot Against Caesar
00:55:16.521 : en:Fallen Prince
00:57:47.881 : en:Mutants on the March
01:00:51.398 : en:First Blood
01:03:03.655 : en:Aldo's Orders
01:08:43.202 : en:As Tall as a King
01:10:21.759 : en:The Mutants Attack
01:19:13.791 : en:"Now, Fight Like Apes!"
01:22:46.628 : en:No Prisoners
01:24:19.262 : en:"Ape Has Killed Ape"
01:30:49.569 : en:Building the Future
01:32:20.285 : en:To Begin Again
01:35:29.307 : en:End Titles
Скриншоты:
-Раздача: 24/7-Не забываем говорить спасибо, Вам не сложно, а мне приятно)))
Прошу с раздачи не уходить! Скачал сам, дай и другим скачать!!!
Приятного просмотра)))
Other forum [Profile] [PM]
Display posts from previous:    
Reply to topic

The time now is: Today 01:44

All times are GMT + 3 Hours



You cannot post new topics in this forum
You cannot reply to topics in this forum
You cannot edit your posts in this forum
You cannot delete your posts in this forum
You cannot vote in polls in this forum
You cannot attach files in this forum
You cannot download files in this forum