Today is a free download without charge Download

Сто тысяч долларов на солнце / Greed in the Sun / Cent mille dollars au soleil (1964) [1080p] BDRip

Reply to topic
 
Author
Message

Omen ®

Longevity: 8 years 5 months

Posts: 181087

Торрент-статистика

Post 13-Jan-2013 10:25

[Quote]

- Сто тысяч долларов на солнце / Greed in the Sun / Cent mille dollars au soleil (1964) [1080p] BDRip
- - Название: Сто тысяч долларов на солнце
Оригинальное название: Greed in the Sun / Cent mille dollars au soleil
Год выпуска: 1964
Жанр: Боевик, Комедия, Приключения
Выпущено: Франция, Италия
Описание фильма:
Небольшой городок в Северной Африке. В компанию по грузоперевозкам, где работает Рокко, прибывает новый трейлер с таинственным грузом, который должен уйти в Нигерию. Для этой миссии хозяин фирмы «Папаша Кастальяно» по прозвищу «Свекла» нанимает человека с фальшивым паспортом и подозрительной репутацией — Джона Штайнера. Вечером, накануне дня выезда, во время дружеской попойки Рокко узнает, что в новой машине находится контрабандный груз на сумму сто тысяч долларов. На утро он угоняет машину со всем содержимым с целью перепродажи. Разгневанный хозяин, узнав о пропаже, посылает в погоню, товарища и коллегу Рокко — Марека, который берет в напарники здоровяка Штайнера.Преследование похитителей превращается в настоящее Кэмел-трофи на тяжелых грузовиках по желтым зыбучим пескам Сахары…
Режиссер: Анри Верней
В ролях: Жан-Поль Бельмондо, Лино Вентура, Реджинальд Кернан, Бернар Блие, Андреа Паризи, Герт Фрёбе, Анн-Мари Коффине, Дуду Бабет, Пьер Мира, Анри Ламбер
Продолжительность: 02:04:46
Перевод: Многоголосый закадровый, Одноголосый закадровый
Субтитры: Французские, Английские
при поддежке SNAUTS
Рейтинг MPAA: PG-13 – лицам до 13 лет обязательное присутствие родителей!!!
Дата мировой премьеры: 17 апреля 1964
Видеокодек: MPEG-4 AVC
Битрейт видео: ~16229 kbps
Размер кадра: 1918x814
Качество видео: BDRip
Аудио:
1. Dolby Digital Русский 2.0 / 48 kHz / 192 kbps (Многоголосый закадровый, "Останкино")
2. Dolby Digital Русский 2.0 / 48 kHz / 192 kbps (Многоголосый закадровый, "Рег-ТВ")
3. FLAC Русский 2.0 / 48 kHz / 342 kbps / 16-bit (Одноголосый закадровый, Ю.Немахов)
4. FLAC Английский 2.0 / 48 kHz / 307 kbps / 16-bit

Награды и номинации

Каннский кинофестиваль, 1964 год
Номинации (1):
• Золотая пальмовая ветвь

MediaInfo

General
Complete name : K:\!КЛАССИКА ХДрип!\Cent.mille.dollars.au.soleil.1964.1080p.BluRay.3xRus.Fre.HDCLUB-Skazhutin.mkv
Format : Matroska
File size : 9.56 MiB
Duration : 2h 4mn
Overall bit rate : 10.7 Kbps
Movie name : Cent mille dollars au soleil (1964)
Encoded date : UTC 2010-02-22 21:41:31
Writing application : mkvmerge v5.9.0 ('On The Loose') built on Dec 9 2012 15:37:01
Writing library : libebml v1.3.0 + libmatroska v1.4.0
Cover : Yes / Yes
Video
ID : 1
Format : AVC
Format/Info : Advanced Video Codec
Format profile : [url=mailto:[email protected]][email protected][/url]
Format settings, CABAC : Yes
Format settings, ReFrames : 5 frames
Muxing mode : Container [email protected]
Codec ID : V_MPEG4/ISO/AVC
Duration : 2h 4mn
Width : 1 918 pixels
Height : 814 pixels
Display aspect ratio : 2.35:1
Frame rate : 24.000 fps
Resolution : 24 bits
Colorimetry : 4:2:0
Scan type : Progressive
Writing library : x264 core 129 r2230kMod 1cffe9f
Encoding settings : cabac=1 / ref=5 / deblock=1:-3:-3 / analyse=0x3:0x113 / me=tesa / subme=11 / psy=1 / fade_compensate=0.00 / psy_rd=1.00:0.00 / mixed_ref=1 / me_range=24 / chroma_me=1 / trellis=2 / 8x8dct=1 / cqm=0 / deadzone=21,11 / fast_pskip=1 / chroma_qp_offset=-2 / threads=12 / lookahead_threads=2 / sliced_threads=0 / nr=0 / decimate=1 / interlaced=0 / bluray_compat=0 / constrained_intra=0 / bframes=8 / b_pyramid=2 / b_adapt=2 / b_bias=0 / direct=3 / weightb=1 / open_gop=0 / weightp=2 / keyint=250 / keyint_min=24 / scenecut=40 / intra_refresh=0 / rc_lookahead=40 / rc=crf / mbtree=0 / crf=16.5000 / qcomp=0.65 / qpmin=0 / qpmax=69 / qpstep=4 / vbv_maxrate=50000 / vbv_bufsize=62500 / crf_max=0.0 / nal_hrd=none / ip_ratio=1.40 / pb_ratio=1.30 / aq=1:1.00
Language : French
matrix_coefficients : BT.709-5, BT.1361, IEC 61966-2-4 709, SMPTE RP177
Audio #1
ID : 2
Format : AC-3
Format/Info : Audio Coding 3
Codec ID : A_AC3
Duration : 2h 4mn
Bit rate mode : Constant
Bit rate : 192 Kbps
Channel(s) : 2 channels
Channel positions : L R
Sampling rate : 48.0 KHz
Stream size : 171 MiB
Title : AC3 2.0 @ 192 kbps - MVO, Ostankino
Language : Russian
Audio #2
ID : 3
Format : AC-3
Format/Info : Audio Coding 3
Codec ID : A_AC3
Duration : 2h 4mn
Bit rate mode : Constant
Bit rate : 192 Kbps
Channel(s) : 2 channels
Channel positions : L R
Sampling rate : 48.0 KHz
Stream size : 171 MiB
Title : AC3 2.0 @ 192 kbps - MVO, Ren-TV
Language : Russian
Audio #3
ID : 4
Format : FLAC
Format/Info : Free Lossless Audio Codec
Codec ID : A_FLAC
Duration : 2h 4mn
Bit rate mode : Variable
Channel(s) : 2 channels
Sampling rate : 48.0 KHz
Resolution : 16 bits
Title : FLAC 2.0 @ 342 kbps - VO, Nemahov
Writing library : libFLAC 1.2.1 (UTC 2007-09-17)
Language : Russian
Audio #4
ID : 5
Format : FLAC
Format/Info : Free Lossless Audio Codec
Codec ID : A_FLAC
Duration : 2h 4mn
Bit rate mode : Variable
Channel(s) : 2 channels
Sampling rate : 48.0 KHz
Resolution : 16 bits
Title : FLAC 2.0 @ 307 kbps
Writing library : libFLAC 1.2.1 (UTC 2007-09-17)
Language : French
Text #1
ID : 6
Format : UTF-8
Codec ID : S_TEXT/UTF8
Codec ID/Info : UTF-8 Plain Text
Text #2
ID : 7
Format : UTF-8
Codec ID : S_TEXT/UTF8
Codec ID/Info : UTF-8 Plain Text
Language : French
Menu
00:00:00.000 : en:Chapter 1
00:11:56.708 : en:Chapter 2
00:21:23.291 : en:Chapter 3
00:31:16.958 : en:Chapter 4
00:40:27.083 : en:Chapter 5
00:52:13.416 : en:Chapter 6
01:03:23.625 : en:Chapter 7
01:17:23.083 : en:Chapter 8
01:28:15.250 : en:Chapter 9
01:41:55.041 : en:Chapter 10
01:50:57.291 : en:Chapter 11
01:58:21.500 : en:Chapter 12
Скриншоты:
-Раздача: 24/7-Не забываем говорить спасибо, Вам не сложно, а мне приятно)))
Прошу с раздачи не уходить! Скачал сам, дай и другим скачать!!!
Приятного просмотра)))
Other forum [Profile] [PM]
Display posts from previous:    
Reply to topic

The time now is: Today 05:04

All times are GMT + 3 Hours



You cannot post new topics in this forum
You cannot reply to topics in this forum
You cannot edit your posts in this forum
You cannot delete your posts in this forum
You cannot vote in polls in this forum
You cannot attach files in this forum
You cannot download files in this forum