Today is a free download without charge Download

Колосс Родосский / The Colossus of Rhodes / Il colosso di Rodi [50th Anniversary Edition] (1961) [720p] BDRip

Reply to topic
 
Author
Message

Omen ®

Longevity: 8 years 5 months

Posts: 181087

Торрент-статистика

Post 13-Jan-2013 10:18

[Quote]

- Колосс Родосский / The Colossus of Rhodes / Il colosso di Rodi [50th Anniversary Edition] (1961) [720p] BDRip
- «A Monster Statue Of Bronze And Stone Twenty Stories Tall Guarded Their Secret!» - Русское название: Колосс Родосский
Оригинальное название: The Colossus of Rhodes / Il colosso di Rodi
Страна: Испания, Италия, Франция
Год выпуска: 1961
Жанр: драма, приключения, история
Описание фильма:
Дйствие картины происходит на острове Родос во II веке до нашей эры. На острове безраздельно царит тиран Ксеркс, окруженный льстивыми предателями-придворными. Немногие честные люди вынуждены скрываться, в противном случае их ожидает тюрьма.
В это время на Родос приезжает афинянин Дарио и сразу оказывается вовлеченным в подготовку мятежа против Ксеркса, который планируется осуществить в день торжественного открытия статуи Колосса Родосского. Заговорщики планируют использовать статую в осуществлении своих дерзких планов…
Режиссер: Серджио Леоне
Актеры: Рори Кэлхун, Леа Массари, Жорж Маршаль, Конрадо Сан Мартин, Анхель Аранда, Мэйбл Карр, Миммо Пальмара, Роберто Камардьель, Жорж Риго, Альваро Де Луна
Продолжительность: 02:23:00
Перевод: Многоголосый закадровый
Субтитры: Нет

Рейтинг MPAA: PG – рекомендуется присутствие родителей!!!
Дата мировой премьеры: 16 июня 1961
Видеокодек: MPEG-4 AVC
Битрейт видео: 4589 Кбит/сек
Размер кадра: 1280x544
Качество видео: BDRip
Аудио:
1. Dolby Digital Русский 2.0 / 48 kHz / 192 kbps (Многоголосый закадровый)
2. DTS Итальянский 2.0 / 48 kHz / 768 kbps / 16-bit

MediaInfo

Формат : Matroska
Версия формата : Version 2
Размер файла : 5,66 Гбайт
Продолжительность : 2 ч. 23 м.
Общий поток : 5661 Кбит/сек
Дата кодирования : UTC 2012-12-16 08:00:37
Программа кодирования : mkvmerge v4.9.1 ('Ich will') сборка от Jul 11 2011 23:53:15
Библиотека кодирования : libebml v1.2.1 + libmatroska v1.1.1
Видео
Идентификатор : 1
Формат : AVC
Формат/Информация : Advanced Video Codec
Профиль формата : [url=mailto:[email protected]][email protected][/url]
Параметр CABAC формата : Да
Параметр ReFrames формата : 5 кадров
Идентификатор кодека : V_MPEG4/ISO/AVC
Продолжительность : 2 ч. 23 м.
Битрейт : 4589 Кбит/сек
Ширина : 1280 пикселей
Высота : 544 пикселя
Соотношение сторон : 2,35:1
Режим частоты кадров : Постоянный
Частота кадров : 24,000 кадра/сек
Цветовое пространство : YUV
Субдискретизация насыщенности : 4:2:0
Битовая глубина : 8 бит
Тип развёртки : Прогрессивная
Бит/(Пиксели*Кадры) : 0.275
Размер потока : 4,58 Гбайт (81%)
Библиотека кодирования : x264 core 125 r2200 999b753
Настройки программы : cabac=1 / ref=5 / deblock=1:-3:-3 / analyse=0x3:0x113 / me=esa / subme=11 / psy=1 / psy_rd=1.00:0.00 / mixed_ref=1 / me_range=32 / chroma_me=1 / trellis=2 / 8x8dct=1 / cqm=0 / deadzone=21,11 / fast_pskip=0 / chroma_qp_offset=-2 / threads=6 / lookahead_threads=1 / sliced_threads=0 / nr=0 / decimate=1 / interlaced=0 / bluray_compat=0 / constrained_intra=0 / bframes=7 / b_pyramid=2 / b_adapt=2 / b_bias=0 / direct=3 / weightb=1 / open_gop=0 / weightp=2 / keyint=250 / keyint_min=23 / scenecut=40 / intra_refresh=0 / rc_lookahead=40 / rc=crf / mbtree=0 / crf=17.0 / qcomp=0.60 / qpmin=0 / qpmax=51 / qpstep=4 / vbv_maxrate=50000 / vbv_bufsize=62500 / crf_max=0.0 / nal_hrd=none / ip_ratio=1.40 / pb_ratio=1.30 / aq=1:0.80
Язык : English
Default : Да
Forced : Нет
Аудио #1
Идентификатор : 2
Формат : AC-3
Формат/Информация : Audio Coding 3
Расширение режима : CM (complete main)
Параметр Endianness формата : Big
Идентификатор кодека : A_AC3
Продолжительность : 2 ч. 23 м.
Вид битрейта : Постоянный
Битрейт : 192 Кбит/сек
Каналы : 2 канала
Расположение каналов : Front: L R
Частота : 48,0 КГц
Битовая глубина : 16 бит
Метод сжатия : С потерями
Размер потока : 196 Мбайт (3%)
Язык : Russian
Default : Да
Forced : Нет
Аудио #2
Идентификатор : 3
Формат : DTS
Формат/Информация : Digital Theater Systems
Режим : 16
Параметр Endianness формата : Big
Идентификатор кодека : A_DTS
Продолжительность : 2 ч. 23 м.
Вид битрейта : Постоянный
Битрейт : 768 Кбит/сек
Каналы : 2 канала
Расположение каналов : Front: L R
Частота : 48,0 КГц
Битовая глубина : 16 бит
Метод сжатия : С потерями
Размер потока : 786 Мбайт (14%)
Язык : Italian
Default : Нет
Forced : Нет
Меню
00:00:00.000 : :Chapter 01
00:05:03.916 : :Chapter 02
00:11:01.415 : :Chapter 03
00:13:09.915 : :Chapter 04
00:21:09.916 : :Chapter 05
00:27:55.916 : :Chapter 06
00:31:12.541 : :Chapter 07
00:39:04.625 : :Chapter 08
00:53:26.333 : :Chapter 09
00:58:56.083 : :Chapter 10
01:05:22.708 : :Chapter 11
01:17:03.250 : :Chapter 12
01:22:40.625 : :Chapter 13
01:37:15.166 : :Chapter 14
01:41:56.916 : :Chapter 15
01:51:59.625 : :Chapter 16
01:58:40.791 : :Chapter 17
02:03:09.833 : :Chapter 18
02:10:31.666 : :Chapter 19
02:13:46.583 : :Chapter 20
02:22:59.833 : :Chapter 21
Скриншоты:
-Раздача: 24/7-Не забываем говорить спасибо, Вам не сложно, а мне приятно)))
Прошу с раздачи не уходить! Скачал сам, дай и другим скачать!!!
Приятного просмотра)))
Other forum [Profile] [PM]
Display posts from previous:    
Reply to topic

The time now is: Today 10:13

All times are GMT + 3 Hours



You cannot post new topics in this forum
You cannot reply to topics in this forum
You cannot edit your posts in this forum
You cannot delete your posts in this forum
You cannot vote in polls in this forum
You cannot attach files in this forum
You cannot download files in this forum