Today is a free download without charge Download

Чудо на 34-й улице / Miracle on 34th Street (1947) [1080p] BDRip

Reply to topic
 
Author
Message

Omen ®

Longevity: 8 years 5 months

Posts: 181087

Торрент-статистика

Post 13-Jan-2013 10:18

[Quote]

- Чудо на 34-й улице / Miracle on 34th Street (1947) [1080p] BDRip
- «Capture the spirit of Christmas with this timeless classic!» - Название: Чудо на 34-й улице
Оригинальное название: Miracle on 34th Street
Год выпуска: 1947
Жанр: Романтическая комедия, семейный, детский
Выпущено: Twentieth Century-Fox Film Corporation
Описание фильма:
Во время парада, устроенного крупным магазином в канун Рождества, актер, который был должен играть Санта Клауса, обнаружен встельку пьяным. Режиссер парада, Дорис Уокер, уговаривает прохожего старика Криса Крингла занять место Санты. После успеха парада Крингл получает работу в магазине. Однако когда менеджер магазина мистер Шеллхаммер говорит, чтобы Крис пытался продать детям залежавшиеся игрушки, тот приходит в негодование. Вместо этого он отсылает детей в другой магазин, принадлежащий их конкуренту, мистеру Гимблу. Это провоцирует большие неприятности. Но все усугубляется тем, что Крис настаивает, что он настоящий Санта-Клаус. Ему приходится доказывать это не только словом, но и делом, свидетелями чего становятся Дорис и ее скептически настроенная дочь Сюзан. Растущая без отца Сюзан пытается сделать так, чтобы ее мать и их сосед, юрист Фред Гэйли, жили вместе. Крис, считающий самым главным на свете счастье детей, пытается помочь Сюзан в достижении ее цели. Постепенно он преодолевает недоверчивость Сюзан в своем настоящем происхождении…
Режиссер: Джордж Ситон
В ролях: Морин О'Хара, Джон Пэйн, Эдмунд Гвенн, Джин Локхарт, Натали Вуд, Портер Холл, Уильям Фроули, Джером Коуэн, Филип Тонг
Продолжительность: 01:36:24
Перевод: Дублированный
Субтитры: Английские, Русские, Украинские

Рейтинг MPAA: G – возрастных ограничений нет!!!
Дата мировой премьеры: 2 мая 1947
Дата DVD премьеры: 24 декабря 2009, «Двадцатый Век Фокс СНГ»
Дата РФ премьеры: 22 декабря 2011, «Двадцатый Век Фокс СНГ»
Видеокодек: MPEG-4 AVC
Битрейт видео: ~ 16,0 Мбит/сек
Размер кадра: 1472x1080
Качество видео: BDRip
Аудио:
1. DTS Русский 5.1 / 48 kHz / 768 kbps/ 24-bit (Дублированный)
2. DTS Английский 5.1 / 48 kHz / 1536 kbps / 24-bit

Награды и номинации

Оскар, 1948 год
Победитель (3):
Лучшая мужская роль второго плана (Эдмунд Гвенн)
Лучший сюжет
Лучший адаптированный сценарий
Номинации (1):
Лучший фильм
Золотой глобус, 1948 год
Победитель (2):
Лучшая мужская роль второго плана (Эдмунд Гвенн)
Лучший сценарий

MediaInfo

Полное имя : Miracle.on.34th.Street.1947.BDRip.1080p.by_genkasper.mkv
Формат : Matroska
Версия формата : Version 2
Размер файла : 12,3 Гбайт
Продолжительность : 1 ч. 36 м.
Общий поток : 18,3 Мбит/сек
Дата кодирования : UTC 2012-01-02 20:42:24
Программа кодирования : mkvmerge v5.2.0 ('I can't explain') built on Dec 18 2011 18:12:03
Библиотека кодирования : libebml v1.2.3 + libmatroska v1.3.0
Видео
Идентификатор : 1
Формат : AVC
Формат/Информация : Advanced Video Codec
Профиль формата : [url=mailto:[email protected]][email protected][/url]
Параметр CABAC формата : Да
Параметр ReFrames формата : 5 кадров
Идентификатор кодека : V_MPEG4/ISO/AVC
Продолжительность : 1 ч. 36 м.
Битрейт : 16,0 Мбит/сек
Ширина : 1472 пикселя
Высота : 1080 пикселей
Соотношение сторон : 4:3
Частота кадров : 23,976 кадра/сек
Цветовое пространство : YUV
Субдискретизация насыщенности : 4:2:0
Битовая глубина : 8 бит
Тип развёртки : Прогрессивная
Бит/(Пиксели*Кадры) : 0.420
Размер потока : 10,6 Гбайт (86%)
Библиотека кодирования : x264 core 115 r1936 7a9e08d
Настройки программы : cabac=1 / ref=5 / deblock=1:-2:-2 / analyse=0x3:0x113 / me=umh / subme=10 / psy=1 / psy_rd=1.00:0.10 / mixed_ref=1 / me_range=32 / chroma_me=1 / trellis=2 / 8x8dct=1 / cqm=0 / deadzone=21,11 / fast_pskip=0 / chroma_qp_offset=-3 / threads=9 / sliced_threads=0 / nr=0 / decimate=1 / interlaced=0 / bluray_compat=0 / constrained_intra=0 / bframes=16 / b_pyramid=2 / b_adapt=2 / b_bias=0 / direct=3 / weightb=1 / open_gop=0 / weightp=2 / keyint=250 / keyint_min=23 / scenecut=40 / intra_refresh=0 / rc_lookahead=50 / rc=2pass / mbtree=1 / bitrate=16000 / ratetol=1.0 / qcomp=0.70 / qpmin=0 / qpmax=69 / qpstep=4 / cplxblur=20.0 / qblur=0.5 / ip_ratio=1.40 / aq=1:1.00
Язык : English
Аудио #1
Идентификатор : 2
Формат : DTS
Формат/Информация : Digital Theater Systems
Идентификатор кодека : A_DTS
Продолжительность : 1 ч. 36 м.
Вид битрейта : Постоянный
Битрейт : 755 Кбит/сек
Каналы : 6 каналов
Расположение каналов : Front: L C R, Side: L R, LFE
Частота : 48,0 КГц
Битовая глубина : 24 бит
Метод сжатия : С потерями
Задержка видео : 3 мс.
Размер потока : 520 Мбайт (4%)
Заголовок : Russian, 755 kbp/s, DTS (6 ch)
Язык : Russian
Аудио #2
Идентификатор : 3
Формат : DTS
Формат/Информация : Digital Theater Systems
Идентификатор кодека : A_DTS
Продолжительность : 1 ч. 36 м.
Вид битрейта : Постоянный
Битрейт : 1510 Кбит/сек
Каналы : 6 каналов
Расположение каналов : Front: L C R, Side: L R, LFE
Частота : 48,0 КГц
Битовая глубина : 24 бит
Метод сжатия : С потерями
Задержка видео : 3 мс.
Размер потока : 1,02 Гбайт (8%)
Заголовок : English, 1510 kbp/s, DTS (6 ch)
Язык : English
Текст #1
Идентификатор : 4
Формат : UTF-8
Идентификатор кодека : S_TEXT/UTF8
Идентификатор кодека/Информация : UTF-8 Plain Text
Язык : Russian
Текст #2
Идентификатор : 5
Формат : PGS
Режим смешивания : zlib
Идентификатор кодека : S_HDMV/PGS
Идентификатор кодека/Информация : The same subtitle format used on BDs/HD-DVDs
Язык : Ukrainian
Текст #3
Идентификатор : 6
Формат : PGS
Режим смешивания : zlib
Идентификатор кодека : S_HDMV/PGS
Идентификатор кодека/Информация : The same subtitle format used on BDs/HD-DVDs
Язык : English
Скриншоты:
-Раздача: 24/7-Не забываем говорить спасибо, Вам не сложно, а мне приятно)))
Прошу с раздачи не уходить! Скачал сам, дай и другим скачать!!!
Приятного просмотра)))
Other forum [Profile] [PM]
Display posts from previous:    
Reply to topic

The time now is: Today 20:13

All times are GMT + 3 Hours



You cannot post new topics in this forum
You cannot reply to topics in this forum
You cannot edit your posts in this forum
You cannot delete your posts in this forum
You cannot vote in polls in this forum
You cannot attach files in this forum
You cannot download files in this forum