Today is a free download without charge Download

Страсти Жанны д’Арк / La passion de Jeanne d\'Arc (1928) [720p] BDRip

Reply to topic
 
Author
Message

Omen ®

Longevity: 8 years 5 months

Posts: 181087

Торрент-статистика

Post 13-Jan-2013 10:18

[Quote]

- Страсти Жанны д’Арк / La passion de Jeanne d'Arc (1928) [720p] BDRip
- - Название: Страсти Жанны д’Арк
Оригинальное название: La passion de Jeanne d'Arc
Год выпуска: 1928
Жанр: Драма, криминал, биография, история
Выпущено: Франция
Описание фильма:
В этом фильме суд на Жанной д`Арк, который в действительности длился целый год, спрессован в один единственный день. «Страсти» совершенно не похожи на стандартный «исторический» фильм, здесь нет живописных декораций; максимум статичных крупных планов, минимум титров, полное отсутствие грима, настоящие пот и мозоли. Дрейер заставлял съемочную группу работать в сумасшедшем темпе; на исполнительницу роли Жанны, актрису Комеди Франсэз Мари Фальконетти, он надел тяжелые цепи, сильно натиравшие кожу; cтремясь к правдоподобию (сценарий «Страстей» основан на реальных протоколах руанского процесса), режиссер даже велел Мари обриться наголо.
Режиссер: Карл Теодор Дрейер
В ролях: Мария Фальконетти, Эжен Сильвен, Андре Берлей, Морис Шюц, Антонен Арто, Жан д’Ид, Луи Раве, Арман Люрвиль, Жак Арнна, Александр Михалеско
Продолжительность: 01:36:27
Перевод: Немой
Субтитры: Английские, Русские

Рейтинг MPAA: PG 13 – лицам до 13 лет обязательное присутствие родителей!!!
Дата мировой премьеры: 21 апреля 1928
Видеокодек: MPEG-4 AVC
Битрейт видео: ~7169 kbps
Размер кадра: 960x720
Качество видео: BDRip
Аудио:
1. AC3 Датский 1.0 / 48 kHz / 56 kbps (Silent)
2. AC3 Японский 2.0 / 48 kHz / 256 kbps (Piano score by Mie Yanashita)

Знаете ли вы, что...

• Для съёмок фильма Карл Теодор Дрейер разработал специальные декорации с подвижными стенами, на создание которых ушла основная часть выделенного бюджета. При этом декорации в кадре видны лишь фрагментарно, так как основной акцент сделан на крупные планы персонажей.
• Работа над фильмом продолжалась около полутора лет.
• В процессе съёмок никто из актёров не гримировался, что было в те времена совершенно беспрецедентно.
• Нет свидетельств, что Дрейер выбрал какое-то музыкальное сопровождение для фильма. Распространена версия, что по замыслу режиссёра фильм должен демонстрироваться без звукового сопровождения, в полной тишине.
• Фильм был запрещён к показу в Великобритании из-за того, что английские солдаты изображены в нём как садисты, издевающиеся над Жанной.
• Оригинальный негатив фильма был утрачен в результате пожара и Дрейер заново смонтировал новую версию из дублей, которые были им прежде отклонены.
• Около 1950 года французский киновед Ло Дука обнаружил фрагменты фильма в архиве студии Gaumont и сделал собственный монтаж фильма с субтитрами и музыкой Вивальди, Альбинони и других композиторов эпохи барокко в качестве звукового сопровождения. Эта версия вызвала резкие протесты Дрейера, который заявил, что монтаж Ло Дука не имеет ничего общего с первоначальным монтажом его фильма.
• В течение полувека первоначальная версия фильма считалась утраченной, однако в 1981 году в Осло в кладовке психиатрической клиники была обнаружена отлично сохранившаяся практически полная копия оригинального фильма с датскими интертитрами, которая стала основой для существующей сейчас восстановленной версии.

MediaInfo

General
Unique ID : 174122848741188145419761347979799825415 (0x82FED7413DFE31A487D8957803BA0C07)
Complete name : La.passion.de.Jeanne.d'Arc.1928.720p.BluRay.AC3.x264.HDCLUB-Skazhutin.mkv
Format : Matroska
Format version : Version 4 / Version 2
File size : 5.14 GiB
Duration : 1h 36mn
Overall bit rate : 7 632 Kbps
Encoded date : UTC 2010-02-22 21:41:31
Writing application : mkvmerge v5.9.0 ('On The Loose') built on Dec 9 2012 15:37:01
Writing library : libebml v1.3.0 + libmatroska v1.4.0
Attachment : Yes / Yes
Video
ID : 1
Format : AVC
Format/Info : Advanced Video Codec
Format profile : [url=mailto:[email protected]][email protected][/url]
Format settings, CABAC : Yes
Format settings, ReFrames : 12 frames
Codec ID : V_MPEG4/ISO/AVC
Duration : 1h 36mn
Bit rate : 7 169 Kbps
Width : 960 pixels
Height : 720 pixels
Display aspect ratio : 4:3
Frame rate : 20.000 fps
Color space : YUV
Chroma subsampling : 4:2:0
Bit depth : 8 bits
Scan type : Progressive
Bits/(Pixel*Frame) : 0.519
Stream size : 4.83 GiB (94%)
Writing library : x264 core 128 r2216kMod 198a7ea
Encoding settings : cabac=1 / ref=12 / deblock=1:-3:-3 / analyse=0x3:0x113 / me=umh / subme=11 / psy=1 / fade_compensate=0.00 / psy_rd=1.00:0.00 / mixed_ref=1 / me_range=64 / chroma_me=1 / trellis=2 / 8x8dct=1 / cqm=0 / deadzone=21,11 / fast_pskip=1 / chroma_qp_offset=-2 / threads=12 / lookahead_threads=2 / sliced_threads=0 / nr=0 / decimate=1 / interlaced=0 / bluray_compat=0 / constrained_intra=0 / bframes=16 / b_pyramid=2 / b_adapt=2 / b_bias=0 / direct=3 / weightb=1 / open_gop=0 / weightp=2 / keyint=250 / keyint_min=20 / scenecut=40 / intra_refresh=0 / rc_lookahead=40 / rc=crf / mbtree=0 / crf=17.0000 / qcomp=0.60 / qpmin=0 / qpmax=69 / qpstep=4 / vbv_maxrate=50000 / vbv_bufsize=62500 / crf_max=0.0 / nal_hrd=none / ip_ratio=1.40 / pb_ratio=1.30 / aq=1:0.80
Language : Danish
Default : Yes
Forced : No
Matrix coefficients : BT.709-5, BT.1361, IEC 61966-2-4 709, SMPTE RP177
Audio #1
ID : 2
Format : AC-3
Format/Info : Audio Coding 3
Mode extension : CM (complete main)
Format settings, Endianness : Big
Codec ID : A_AC3
Duration : 1h 36mn
Bit rate mode : Constant
Bit rate : 56.0 Kbps
Channel(s) : 1 channel
Channel positions : Front: C
Sampling rate : 48.0 KHz
Bit depth : 16 bits
Compression mode : Lossy
Stream size : 38.6 MiB (1%)
Title : AC3 1.0 @ 56 kbps - Silent
Language : Danish
Default : Yes
Forced : No
Audio #2
ID : 3
Format : AC-3
Format/Info : Audio Coding 3
Mode extension : CM (complete main)
Format settings, Endianness : Big
Codec ID : A_AC3
Duration : 1h 36mn
Bit rate mode : Constant
Bit rate : 256 Kbps
Channel(s) : 2 channels
Channel positions : Front: L R
Sampling rate : 48.0 KHz
Bit depth : 16 bits
Compression mode : Lossy
Stream size : 177 MiB (3%)
Title : AC3 2.0 @ 256 kbps - Piano score by Mie Yanashita
Language : Japanese
Default : No
Forced : No
Text #1
ID : 4
Format : UTF-8
Codec ID : S_TEXT/UTF8
Codec ID/Info : UTF-8 Plain Text
Language : Russian
Default : Yes
Forced : No
Text #2
ID : 5
Format : UTF-8
Codec ID : S_TEXT/UTF8
Codec ID/Info : UTF-8 Plain Text
Language : English
Default : No
Forced : No
Menu
00:00:00.000 : en:Court Records
00:01:44.083 : en:Trial
00:20:13.208 : en:Confinement
00:39:56.000 : en:Torture
00:47:52.208 : en:Deathbed
00:59:15.708 : en:Abjuration
01:10:47.333 : en:Recantation
01:20:02.208 : en:"Unto Life Everlasting..."
01:23:05.333 : en:The Stake
Скриншоты:
-Раздача: 24/7-Не забываем говорить спасибо, Вам не сложно, а мне приятно)))
Прошу с раздачи не уходить! Скачал сам, дай и другим скачать!!!
Приятного просмотра)))
Other forum [Profile] [PM]
Similar theme
Forum Topic Author Torrent Replies Last Post
./templates/default/images/folder_dl.gif Техническая и научно-популярная литература Е.А.Рудометов, В.Е.Рудометов | Шпионские страсти. Электронные устройства двойного применения [2000] [DJVU] UndegraundMen
1 | 0

0 | 588

3

2013-06-26 03:12
UndegraundMen Latest
Display posts from previous:    
Reply to topic

The time now is: Today 11:32

All times are GMT + 3 Hours



You cannot post new topics in this forum
You cannot reply to topics in this forum
You cannot edit your posts in this forum
You cannot delete your posts in this forum
You cannot vote in polls in this forum
You cannot attach files in this forum
You cannot download files in this forum