Today is a free download without charge Download

Оскар / Oscar (1967) [720p] WEB-DL

Reply to topic
 
Author
Message

Omen ®

Longevity: 8 years 5 months

Posts: 181087

Торрент-статистика

Post 13-Jan-2013 10:18

[Quote]

- Оскар / Oscar (1967) [720p] WEB-DL
- - Название: Оскар
Оригинальное название: Oscar
Год выпуска: 1967
Жанр: Комедия
Выпущено: Франция, Gaumont International
Описание фильма:
Бертран Барнье — крупный промышленник, к которому с утра пораньше является его управляющий Кристиан. Он заявляет, что любит его дочь Колет, а после этого признается, что украл у предпринимателя кругленькую сумму. Вдобавок бизнесмен узнает, что его горничная увольняется и в одночасье становится баронессой. Колет заявляет, что беременна от бывшего шофера по имени Оскар. Кроме того, выяснятся, что она вовсе не дочь Барнье и, не желая оставаться старой девой, готова выйти замуж за любого встречного… К тому же, к этой истории примешиваются два черных чемодана, один из которых набит деньгами и драгоценностям, а другой женским нижним бельем… Как тут, от такого потока событий, происходящих в течение одного дня, «бедному» Бертрану не сойти с ума...
Режиссер: Эдуард Молинаро
В ролях: Луи де Фюнес, Клод Риш, Агата Натансон, Клод Жансак, Сильвия Сорель, Доминик Пейдж, Марио Давид, Поль Пребуа, Жермен Дельба, Роже Ван Хол
Продолжительность: 01:23:08
Перевод: Дублированный, Многоголосый закадровый
Субтитры: Русские

Рейтинг MPAA: G – возрастных ограничений нет!!!
Дата мировой премьеры: 11 октября 1967
Дата DVD премьеры: 18 сентября 2008, «Cinema Prestige»
Видеокодек: MPEG-4 AVC
Битрейт видео: ~ 4000 Кбит/с
Размер кадра: 1280x544
Качество видео: WEB-DL
Аудио:
1. АС3 Русский 2.0 / 48 kHz / 192 kbps (Дублированный, Союзмультфильм)
2. АС3 Русский 2.0 / 48 kHz / 192 kbps (Многоголосый закадровый, Cinema Prestige)
3. АС3 Русский 2.0 / 48 kHz / 192 kbps (Многоголосый закадровый, SomeWax)
4. АС3 Русский 2.0 / 48 kHz / 192 kbps (Многоголосый закадровый, Светла)
5. АС3 Русский 2.0 / 48 kHz / 192 kbps (Многоголосый закадровый, РенТВ)
6. АС3 Русский 2.0 / 48 kHz / 192 kbps (Многоголосый закадровый, ТВЦ)
7. ААC Французский 2.0 / 48 kHz / 160 kbps

Знаете ли вы, что...

На основе французского фильма по пьесе Клода Манье в 1991 году был снят голливудский фильм «Оскар » с Сильвестром Сталлоне в главной роли.

MediaInfo

General
Unique ID : 187137352406943365217719317403416671894 (0x8CC957D386C7388499F173D3544C3696)
Format : Matroska
Format version : Version 4 / Version 2
File size : 3.06 GiB
Duration : 1h 23mn
Overall bit rate : 5 271 Kbps
Movie name : Oscar (1967)
Encoded date : UTC 2010-02-22 21:41:31
Writing application : mkvmerge v5.9.0 ('On The Loose') built on Dec 9 2012 15:37:01
Writing library : libebml v1.3.0 + libmatroska v1.4.0
Video
ID : 1
Format : AVC
Format/Info : Advanced Video Codec
Format profile : [url=mailto:[email protected]][email protected][/url]
Format settings, CABAC : No
Format settings, ReFrames : 2 frames
Codec ID : V_MPEG4/ISO/AVC
Duration : 1h 23mn
Width : 1 280 pixels
Height : 544 pixels
Display aspect ratio : 2.35:1
Frame rate : 24.000 fps
Color space : YUV
Chroma subsampling : 4:2:0
Bit depth : 8 bits
Scan type : Progressive
Language : French
Default : Yes
Forced : No
Color primaries : BT.709-5, BT.1361, IEC 61966-2-4, SMPTE RP177
Transfer characteristics : BT.709-5, BT.1361
Matrix coefficients : BT.709-5, BT.1361, IEC 61966-2-4 709, SMPTE RP177
Audio #1
ID : 2
Format : AC-3
Format/Info : Audio Coding 3
Format profile : Dolby Digital
Mode extension : CM (complete main)
Codec ID : A_AC3
Duration : 1h 23mn
Bit rate mode : Constant
Bit rate : 192 Kbps
Channel(s) : 2 channels
Channel positions : Front: L R
Sampling rate : 48.0 KHz
Bit depth : 16 bits
Compression mode : Lossy
Stream size : 114 MiB (4%)
Title : AC3 48kHz 2.0 192 kbps Dub
Language : Russian
Default : Yes
Forced : No
Audio #2
ID : 3
Format : AC-3
Format/Info : Audio Coding 3
Format profile : Dolby Digital
Mode extension : CM (complete main)
Codec ID : A_AC3
Duration : 1h 23mn
Bit rate mode : Constant
Bit rate : 192 Kbps
Channel(s) : 2 channels
Channel positions : Front: L R
Sampling rate : 48.0 KHz
Bit depth : 16 bits
Compression mode : Lossy
Stream size : 114 MiB (4%)
Title : AC3 48kHz 2.0 192 kbps MVO Cinema Prestige
Language : Russian
Default : No
Forced : No
Audio #3
ID : 4
Format : AC-3
Format/Info : Audio Coding 3
Format profile : Dolby Digital
Mode extension : CM (complete main)
Codec ID : A_AC3
Duration : 1h 23mn
Bit rate mode : Constant
Bit rate : 192 Kbps
Channel(s) : 2 channels
Channel positions : Front: L R
Sampling rate : 48.0 KHz
Bit depth : 16 bits
Compression mode : Lossy
Stream size : 114 MiB (4%)
Title : AC3 48kHz 2.0 192 kbps MVO SomeWax
Language : Russian
Default : No
Forced : No
Audio #4
ID : 5
Format : AC-3
Format/Info : Audio Coding 3
Format profile : Dolby Digital
Mode extension : CM (complete main)
Codec ID : A_AC3
Duration : 1h 23mn
Bit rate mode : Constant
Bit rate : 192 Kbps
Channel(s) : 2 channels
Channel positions : Front: L R
Sampling rate : 48.0 KHz
Bit depth : 16 bits
Compression mode : Lossy
Stream size : 114 MiB (4%)
Title : AC3 48kHz 2.0 192 kbps MVO Svetla
Language : Russian
Default : No
Forced : No
Audio #5
ID : 6
Format : AC-3
Format/Info : Audio Coding 3
Format profile : Dolby Digital
Mode extension : CM (complete main)
Codec ID : A_AC3
Duration : 1h 23mn
Bit rate mode : Constant
Bit rate : 192 Kbps
Channel(s) : 2 channels
Channel positions : Front: L R
Sampling rate : 48.0 KHz
Bit depth : 16 bits
Compression mode : Lossy
Stream size : 114 MiB (4%)
Title : AC3 48kHz 2.0 192 kbps MVO RenTV
Language : Russian
Default : No
Forced : No
Audio #6
ID : 7
Format : AC-3
Format/Info : Audio Coding 3
Format profile : Dolby Digital
Mode extension : CM (complete main)
Codec ID : A_AC3
Duration : 1h 23mn
Bit rate mode : Constant
Bit rate : 192 Kbps
Channel(s) : 2 channels
Channel positions : Front: L R
Sampling rate : 48.0 KHz
Bit depth : 16 bits
Compression mode : Lossy
Stream size : 114 MiB (4%)
Title : AC3 48kHz 2.0 192 kbps MVO TVC
Language : Russian
Default : No
Forced : No
Audio #7
ID : 8
Format : AAC
Format/Info : Advanced Audio Codec
Format profile : LC
Codec ID : A_AAC
Duration : 1h 23mn
Channel(s) : 2 channels
Channel positions : Front: L R
Sampling rate : 48.0 KHz
Compression mode : Lossy
Title : AAC 2.0 VBR Original
Language : French
Default : No
Forced : No
Text
ID : 9
Format : UTF-8
Codec ID : S_TEXT/UTF8
Codec ID/Info : UTF-8 Plain Text
Title : Russian
Language : Russian
Default : No
Forced : No
Menu
00:00:00.000 : en:Chapitre 1
00:04:21.000 : en:Chapitre 2
00:09:50.000 : en:Chapitre 3
00:11:48.000 : en:Chapitre 4
00:16:18.000 : en:Chapitre 5
00:19:17.000 : en:Chapitre 6
00:23:26.000 : en:Chapitre 7
00:26:24.000 : en:Chapitre 8
00:33:19.000 : en:Chapitre 9
00:37:57.000 : en:Chapitre 10
00:42:52.000 : en:Chapitre 11
00:47:21.000 : en:Chapitre 12
00:54:10.000 : en:Chapitre 13
00:58:23.000 : en:Chapitre 14
01:02:41.000 : en:Chapitre 15
01:07:15.000 : en:Chapitre 16
01:15:44.000 : en:Chapitre 17
01:22:15.000 : en:Chapitre 18
Скриншоты:
-Раздача: 24/7-Не забываем говорить спасибо, Вам не сложно, а мне приятно)))
Прошу с раздачи не уходить! Скачал сам, дай и другим скачать!!!
Приятного просмотра)))
Other forum [Profile] [PM]
Display posts from previous:    
Reply to topic

The time now is: Today 19:16

All times are GMT + 3 Hours



You cannot post new topics in this forum
You cannot reply to topics in this forum
You cannot edit your posts in this forum
You cannot delete your posts in this forum
You cannot vote in polls in this forum
You cannot attach files in this forum
You cannot download files in this forum