Today is a free download without charge Download

Французский связной: Дилогия / The French Connection: Dilogy (1971, 1975) [720p] BDRip

Reply to topic
 
Author
Message

Omen ®

Longevity: 8 years 5 months

Posts: 181087

Торрент-статистика

Post 13-Jan-2013 10:18

[Quote]

-Французский связной: Дилогия / The French Connection: Dilogy (1971, 1975) [720p] BDRip- Русское название: Французский связной: Дилогия
Оригинальное название: The French Connection: Dilogy
Страна: США
Год выпуска: 1971, 1975
Жанр: боевик, триллер, криминал
Режиссер: Уильям Фридкин, Джон Франкенхаймер
Продолжительность: 01:43:42, 01:59:18
Релиз: -

Французский связной / French Connection

Французский связной / The French Connection (1971) [720p] BDRip- «There are no rules and no holds barred when Popeye cuts loose!» - Русское название: Французский связной
Оригинальное название: The French Connection
Страна: США
Год выпуска: 1971
Жанр: боевик, триллер, криминал
Описание фильма:
Сюжет фильма крутится вокруг поимки нью-йоркскими стражами порядка банды преступников, занимающихся транспортировкой наркотиков из Франции. Полицейский Попай - его так прозвали в честь героя известного мультфильма - уверенно идет по следу гангстеров, попадая в самую гущу жизни огромного города.
Режиссер: Уильям Фридкин
Актеры: Джин Хэкмен, Фернандо Рей, Рой Шайдер, Тони Ло Бьянко, Марсель Боззюффи, Фредерик де Паскуале, Билл Хикман, Энн Реббо, Харольд Гари, Арлин Фарбер
Продолжительность: 01:43:42
Перевод: Многоголосый закадровый, Одноголосый закадровый
Субтитры: Английский, Русский

Рейтинг MPAA: R - Детям до 17 лет обязательно присутствие родителей!!!
Дата мир премьеры: 7 октября 1971
Дата DVD премьеры: 19 февраля 2009, «Двадцатый Век Фокс СНГ»
Видеокодек: MPEG-4 AVC
Битрейт видео: 9 000 Kbps
Размер кадра: 1280x694
Качество видео: BDRip
Аудио:
1. Dolby Digital Русский 448 kbps 5.1 48 kHz (Многоголосый закадровый – R5)
2. DTS Русский 1509 kbps 5.1 48 kHz 16-bit (Одноголосый закадровый - А.Михалёв)
3. DTS Английский 1509 kbps 5.1 48 kHz 24-bit
4. Dolby Digital Английский 224 kbps 2.0 48 kHz (Commentary with Director William Friedkin)
5. Dolby Digital Английский 224 kbps 2.0 48 kHz (Commentary with Gene Hackman)

Награды и номинации

• Британская академия, 1973 год
Победитель (2):
Лучшая мужская роль (Джин Хэкмен)
Лучший монтаж
Номинации (3):
Лучший фильм
Лучший режиссер (Уильям Фридкин)
Лучший саундтрек
• Оскар, 1972 год
Победитель (5):
Лучший фильм
Лучшая мужская роль (Джин Хэкмен)
Лучший режиссер (Уильям Фридкин)
Лучший адаптированный сценарий
Лучший монтаж
Номинации (3):
Лучшая мужская роль второго плана (Рой Шайдер)
Лучшая работа оператора
Лучший звук
• Золотой глобус, 1972 год
Победитель (3):
Лучшая мужская роль (драма) (Джин Хэкмен)
Лучший фильм (драма)
Лучший режиссер (Уильям Фридкин)
Номинации (1):
Лучший сценарий

...из книги «3500 кинорецензий»

Этапная картина в истории жанра «полицейского фильма», своеобразная веха в его развитии. Влияние этой ленты сравнимо с тем значением, которое имеет «Крёстный отец» для гангстерских картин (поэтому весьма любопытно ныне обнаружить упоминание в imdb, что в создании сценария какое-то участие принимал классик американского кино Хауард Хокс, постановщик легендарного «Лица со шрамом»). Хотя «Французский связной» не пользовался таким же громадным успехом в американском прокате, собрав в два с половиной раза меньше денег, однако превысил свой ничтожный бюджет в размере $1,8 млн. почти в 29 (!) раз.
Сюжет о поимке нью-йоркскими полицейскими преступников, которые занимаются транспортировкой наркотиков из Франции, имел место в действительности зимой 1961—1962 годов, когда в Гарлеме удалось перехватить груз с наркотиками весом в 50 килограммов и стоимостью $32 млн. Но для 35-летнего Уильяма Фридкина (поначалу считалось, что он — 1939 года рождения, и ему даже был приписан рекорд в истории присуждения премий «Оскар» как самому молодому лауреату-режиссёру) — это лишь повод для того, чтобы проявить свой необычный подход к материалу.
Фридкин создал напряжённый, наполненный множеством реалистических подробностей, ювелирно отточенный психологический фильм, который сочетает черты криминальной драмы и боевика. Он тщательно вписал занимательную интригу в энергичную, разноликую среду обитания Нью-Йорка. Даже невероятная сцена погони под мостом надземки превзошла прежде считавшийся эталонным эпизод преследования из «Буллита» — именно благодаря впечатлению словно бы неотрепетированного, реального события, которое происходит буквально у нас на глазах, средь белого дня, при большом скоплении встречных машин и пешеходов.
И, конечно, великолепна игра актёров Джина Хэкмена (премия «Оскар») и Роя Шайдера (номинация на «Оскар»), которые воплотили на экране убедительные, жизненно достоверные, полнокровные характеры людей, которые в обыденных ситуациях мало отличаются от других, но сразу же преображаются в опасную минуту. Интересно, что герой Хэкмена имеет «комиксовое» прозвище Попай, но, в отличие от морячка с трубкой в зубах из популярной анимационной ленты, он выглядит не придуманным, а будто извлечённым из гущи американской жизни.
«Французский связной» получил пять премий «Оскар», причём особо знаменательна победа Уильяма Фридкина как режиссёра, выигравшего в творческом поединке со Стенли Кубриком и Питером Богдановичем, чьи работы «Заводной апельсин» и «Последний киносеанс» всё-таки значительнее для мирового кино, однако у американцев свой «лос-анджелесский счёт». К сожалению, Фридкину впоследствии ни в одной из картин так и не удалось повторить этот художественный успех — впрочем, скандальную известность и подлинный зрительский ажиотаж имела его следующая работа «Изгоняющий дьявола» (1973). Помимо продолжения «Французский связной II», осуществлённого в 1975 году уже другим постановщиком, Джоном Франкенхаймером, в 80-е возник телесериал «Попай Дойл», главным героем которого стал тот же самый нью-йоркский полицейский Джимми Дойл, хотя его играл иной актёр.

Mediainfo

General
Unique ID : 179444759664517527155365601994440557150 (0x86FFCDB8BCE670E585A6331AF9B9C25E)
Complete name : FRENCH_CONNECTION_DILOGY_720p_HDCLUB\The.French.Connection.I.1971.720p.Bluray.Rus.Eng.HDCLUB.mkv
Format : Matroska
Format version : Version 2
File size : 9.35 GiB
Duration : 1h 43mn
Overall bit rate : 12.9 Mbps
Encoded date : UTC 2012-12-31 01:01:08
Writing application : mkvmerge v5.6.0 ('Kenya Kane') built on May 27 2012 16:44:04
Writing library : libebml v1.2.3 + libmatroska v1.3.0
Video
ID : 1
Format : AVC
Format/Info : Advanced Video Codec
Format profile : [url=mailto:[email protected]][email protected][/url]
Format settings, CABAC : Yes
Format settings, ReFrames : 9 frames
Codec ID : V_MPEG4/ISO/AVC
Duration : 1h 43mn
Bit rate : 9 000 Kbps
Width : 1 280 pixels
Height : 694 pixels
Display aspect ratio : 1.85:1
Frame rate mode : Constant
Frame rate : 23.976 fps
Color space : YUV
Chroma subsampling : 4:2:0
Bit depth : 8 bits
Scan type : Progressive
Bits/(Pixel*Frame) : 0.423
Stream size : 6.33 GiB (68%)
Title : The.French.Connection.I.1971.720p.Bluray.Rus.Eng.HDCLUB
Writing library : x264 core 129 r2230 1cffe9f
Encoding settings : cabac=1 / ref=9 / deblock=1:-3:-3 / analyse=0x3:0x133 / me=umh / subme=11 / psy=1 / psy_rd=1.10:0.00 / mixed_ref=1 / me_range=48 / chroma_me=1 / trellis=2 / 8x8dct=1 / cqm=0 / deadzone=21,11 / fast_pskip=0 / chroma_qp_offset=-2 / threads=12 / lookahead_threads=2 / sliced_threads=0 / nr=0 / decimate=1 / interlaced=0 / bluray_compat=0 / constrained_intra=0 / bframes=10 / b_pyramid=2 / b_adapt=2 / b_bias=0 / direct=3 / weightb=1 / open_gop=0 / weightp=2 / keyint=250 / keyint_min=23 / scenecut=40 / intra_refresh=0 / rc_lookahead=60 / rc=2pass / mbtree=0 / bitrate=9000 / ratetol=1.0 / qcomp=0.60 / qpmin=0 / qpmax=69 / qpstep=4 / cplxblur=20.0 / qblur=0.5 / vbv_maxrate=50000 / vbv_bufsize=62500 / nal_hrd=none / ip_ratio=1.40 / pb_ratio=1.30 / aq=1:0.80
Language : English
Default : Yes
Forced : Yes
Audio #1
ID : 2
Format : AC-3
Format/Info : Audio Coding 3
Mode extension : CM (complete main)
Format settings, Endianness : Big
Codec ID : A_AC3
Duration : 1h 43mn
Bit rate mode : Constant
Bit rate : 448 Kbps
Channel(s) : 6 channels
Channel positions : Front: L C R, Side: L R, LFE
Sampling rate : 48.0 KHz
Bit depth : 16 bits
Compression mode : Lossy
Stream size : 332 MiB (3%)
Title : DD 5.1 @ 448 kbps - MVO [R5]
Language : Russian
Default : Yes
Forced : Yes
Audio #2
ID : 3
Format : DTS
Format/Info : Digital Theater Systems
Mode : 16
Format settings, Endianness : Big
Codec ID : A_DTS
Duration : 1h 43mn
Bit rate mode : Constant
Bit rate : 1 509 Kbps
Channel(s) : 6 channels
Channel positions : Front: L C R, Side: L R, LFE
Sampling rate : 48.0 KHz
Bit depth : 16 bits
Compression mode : Lossy
Stream size : 1.09 GiB (12%)
Title : DTS 5.1 @ 1509 kbps - Autor's [Mihaliov]
Language : Russian
Default : No
Forced : No
Audio #3
ID : 4
Format : DTS
Format/Info : Digital Theater Systems
Mode : 16
Format settings, Endianness : Big
Codec ID : A_DTS
Duration : 1h 43mn
Bit rate mode : Constant
Bit rate : 1 509 Kbps
Channel(s) : 6 channels
Channel positions : Front: L C R, Side: L R, LFE
Sampling rate : 48.0 KHz
Bit depth : 24 bits
Compression mode : Lossy
Stream size : 1.09 GiB (12%)
Title : DTS 5.1 @ 1509 kbps - Original
Language : English
Default : No
Forced : No
Audio #4
ID : 5
Format : AC-3
Format/Info : Audio Coding 3
Mode extension : CM (complete main)
Format settings, Endianness : Big
Codec ID : A_AC3
Duration : 1h 43mn
Bit rate mode : Constant
Bit rate : 224 Kbps
Channel(s) : 2 channels
Channel positions : Front: L R
Sampling rate : 48.0 KHz
Bit depth : 16 bits
Compression mode : Lossy
Stream size : 166 MiB (2%)
Title : DD 2.0 @ 224 kbps - Commentary with Director William Friedkin
Language : English
Default : No
Forced : No
Audio #5
ID : 6
Format : AC-3
Format/Info : Audio Coding 3
Mode extension : CM (complete main)
Format settings, Endianness : Big
Codec ID : A_AC3
Duration : 1h 43mn
Bit rate mode : Constant
Bit rate : 224 Kbps
Channel(s) : 2 channels
Channel positions : Front: L R
Sampling rate : 48.0 KHz
Bit depth : 16 bits
Compression mode : Lossy
Stream size : 166 MiB (2%)
Title : DD 2.0 @ 224 kbps - Commentary with Gene Hackman
Language : English
Default : No
Forced : No
Text #1
ID : 7
Format : UTF-8
Codec ID : S_TEXT/UTF8
Codec ID/Info : UTF-8 Plain Text
Language : Russian
Default : Yes
Forced : Yes
Text #2
ID : 8
Format : UTF-8
Codec ID : S_TEXT/UTF8
Codec ID/Info : UTF-8 Plain Text
Language : English
Default : No
Forced : No
Text #3
ID : 9
Format : UTF-8
Codec ID : S_TEXT/UTF8
Codec ID/Info : UTF-8 Plain Text
Title : Commentary with Director William Friedkin
Language : English
Default : No
Forced : No
Text #4
ID : 10
Format : UTF-8
Codec ID : S_TEXT/UTF8
Codec ID/Info : UTF-8 Plain Text
Title : Commentary with Gene Hackman
Language : English
Default : No
Forced : No
Menu
00:00:00.000 : en:Main Titles
00:00:55.680 : en:In the Cool of the Pool
00:03:32.754 : en:Class in Session
00:07:23.693 : en:A Yelp for Help
00:09:43.249 : en:Community Standards
00:14:40.963 : en:Who-Ville
00:20:37.819 : en:96 Daughters
00:23:05.509 : en:Family Tradition
00:25:53.134 : en:Keep it to Yourself
00:29:32.479 : en:Good News Only
00:32:55.306 : en:Cosmic Convergence
00:34:33.279 : en:Brainiest Brain
00:39:25.696 : en:The Perfect Place
00:41:03.419 : en:Horton the Brave
00:42:01.685 : en:Making Trouble
00:45:29.184 : en:Lighter Than a Feather
00:51:59.533 : en:Weird Feeling
00:55:04.676 : en:Being Alone
01:02:17.483 : en:Evil Plans
01:05:08.988 : en:Summer Show
01:06:24.981 : en:Code of Honor
01:10:08.245 : en:Vlad Attacks
01:16:48.145 : en:Warning Who-Ville
01:17:39.821 : en:The Clover Field
01:24:54.714 : en:Finding the Speck
01:28:32.849 : en:Under Attack
01:31:00.246 : en:Admit You're Wrong
01:32:33.965 : en:We Are Here!
01:36:28.866 : en:One More Voice
01:39:37.346 : en:Hearing the Whos
01:41:30.334 : en:No Matter How Small
01:42:00.489 : en:End Titles
01:43:41.506 : en:
Скриншоты:

Французский связной 2 / French Connection II

Французский связной 2 / French Connection II (1975) [720p] BDRip- «THE FRENCH CONNECTION was only the beginning-THIS is the climax» - Русское название: Французский связной 2
Оригинальное название: French Connection II
Страна: США
Год выпуска: 1975
Жанр: боевик, триллер, драма, криминал
Описание фильма:
Вторая серия известной криминальной драмы о нью-йоркском полицейском Попае-Дойле. Бравый служитель закона продолжает свою яростную и кровавую борьбу против торговцев наркотиками.
На этот раз ареной напряженного действия является Марсель, где наш герой попадает в запутанную сеть наркобизнеса, упрямо идя по следу гангстеров. По мере сил ему пытаются помогать французские полицейские.
Режиссер: Джон Франкенхаймер
Актеры: Джин Хэкмен, Фернандо Рей, Бернар Фрессон, Жан-Пьер Кастальди, Шарль Мийо, Кэтлин Несбит, Пьер Колле, Александр Фабр, Филипп Леотар, Жак Динам
Продолжительность: 01:59:18
Перевод: Многоголосый закадровый, Одноголосый закадровый
Субтитры: Английский, Русский

Рейтинг MPAA: R - Детям до 17 лет обязательно присутствие родителей!!!
Дата мир премьеры: 18 мая 1975
Дата DVD премьеры: 9 апреля 2009, «Двадцатый Век Фокс СНГ»
Видеокодек: MPEG-4 AVC
Битрейт видео: 9 000 Kbps
Размер кадра: 1280x694
Качество видео: BDRip
Аудио:
1. Dolby Digital Русский 448 kbps 5.1 48 kHz (Многоголосый закадровый – R5)
2. DTS Русский 1509 kbps 5.1 48 kHz 16-bit (Одноголосый закадровый - А.Михалёв)
3. DTS Английский 1509 kbps 5.1 48 kHz 24-bit
4. Dolby Digital Английский 224 kbps 2.0 48 kHz (Commentary with Director John Frankenheimer)
5. Dolby Digital Английский 224 kbps 2.0 48 kHz (Commentary with Producer Robert Rosen)

...из книги «3500 кинорецензий»

Вторая серия популярного фильма о нью-йоркском полицейском Джимми «Попае» Дойле показалась авторам американского издания «Видео Муви Гайд» настолько занудной, что они даже поместили этот боевик в раздел драм. И на самом деле, за исключением первой и последней (энергичных и насыщенных действием) сцен, события разворачиваются неторопливо. Бравый борец против торговцев наркотиками прибывает из Америки во Францию, а конкретно — в город Марсель, где просто вязнет в хитросплетениях разветвлённой сети наркобизнеса. Ему пытаются по мере сил помочь французские полицейские. Но яростному напору героя Джина Хэкмена, лишённого возможности за границей развернуться по-настоящему, то есть по-американски, некуда деться, кроме как выплеснуть себя в словесной несдержанности и откровенной брани.
Вообще после этой картины остаётся ощущение, что актёр постоянно сквернословит и крушит всё, попадающееся герою под руку. Он похож на льва, рычащего в клетке, но также и на неповоротливого слона в посудной лавке. Тем не менее, Хэкмен номинировался на премии «Золотой глобус» и БАФТА. А вот режиссёр Джон Франкенхаймер точно не смог соперничать с Уильямом Фридкиным, постановщиком первого «Французского связного», по увлекательности и динамичности рассказа на всём протяжении ленты. Вторая серия всего лишь на пятнадцать минут дольше первой, а кажется, что продолжается вдвое больше. Неудивительно, что она плохо прошла в прокате, сумев привлечь незначительную аудиторию, которая оказалась в пять с лишним раз меньше, чем число зрителей, посмотревших фильм 1971 года.

Mediainfo

General
Unique ID : 175087692464083905342817329725129830422 (0x83B8A9B91FD90D63B7F2CA8A50F33016)
Complete name : FRENCH_CONNECTION_DILOGY_720p_HDCLUB\The.French.Connection.II.1975.720p.Bluray.Rus.Eng.HDCLUB.mkv
Format : Matroska
Format version : Version 2
File size : 10.8 GiB
Duration : 1h 59mn
Overall bit rate : 12.9 Mbps
Encoded date : UTC 2012-12-31 00:53:15
Writing application : mkvmerge v5.6.0 ('Kenya Kane') built on May 27 2012 16:44:04
Writing library : libebml v1.2.3 + libmatroska v1.3.0
Video
ID : 1
Format : AVC
Format/Info : Advanced Video Codec
Format profile : [url=mailto:[email protected]][email protected][/url]
Format settings, CABAC : Yes
Format settings, ReFrames : 9 frames
Codec ID : V_MPEG4/ISO/AVC
Duration : 1h 59mn
Bit rate : 9 000 Kbps
Width : 1 280 pixels
Height : 694 pixels
Display aspect ratio : 1.85:1
Frame rate mode : Constant
Frame rate : 23.976 fps
Color space : YUV
Chroma subsampling : 4:2:0
Bit depth : 8 bits
Scan type : Progressive
Bits/(Pixel*Frame) : 0.423
Stream size : 7.29 GiB (68%)
Title : The.French.Connection.II.1975.720p.Bluray.Rus.Eng.HDCLUB
Writing library : x264 core 129 r2230 1cffe9f
Encoding settings : cabac=1 / ref=9 / deblock=1:-3:-3 / analyse=0x3:0x133 / me=umh / subme=11 / psy=1 / psy_rd=1.10:0.00 / mixed_ref=1 / me_range=48 / chroma_me=1 / trellis=2 / 8x8dct=1 / cqm=0 / deadzone=21,11 / fast_pskip=0 / chroma_qp_offset=-2 / threads=12 / lookahead_threads=2 / sliced_threads=0 / nr=0 / decimate=1 / interlaced=0 / bluray_compat=0 / constrained_intra=0 / bframes=10 / b_pyramid=2 / b_adapt=2 / b_bias=0 / direct=3 / weightb=1 / open_gop=0 / weightp=2 / keyint=250 / keyint_min=23 / scenecut=40 / intra_refresh=0 / rc_lookahead=60 / rc=2pass / mbtree=0 / bitrate=9000 / ratetol=1.0 / qcomp=0.60 / qpmin=0 / qpmax=69 / qpstep=4 / cplxblur=20.0 / qblur=0.5 / vbv_maxrate=50000 / vbv_bufsize=62500 / nal_hrd=none / ip_ratio=1.40 / pb_ratio=1.30 / aq=1:0.80
Language : English
Default : Yes
Forced : Yes
Audio #1
ID : 2
Format : AC-3
Format/Info : Audio Coding 3
Mode extension : CM (complete main)
Format settings, Endianness : Big
Codec ID : A_AC3
Duration : 1h 59mn
Bit rate mode : Constant
Bit rate : 448 Kbps
Channel(s) : 6 channels
Channel positions : Front: L C R, Side: L R, LFE
Sampling rate : 48.0 KHz
Bit depth : 16 bits
Compression mode : Lossy
Stream size : 382 MiB (3%)
Title : DD 5.1 @ 448 kbps - MVO [R5]
Language : Russian
Default : Yes
Forced : Yes
Audio #2
ID : 3
Format : DTS
Format/Info : Digital Theater Systems
Mode : 16
Format settings, Endianness : Big
Codec ID : A_DTS
Duration : 1h 59mn
Bit rate mode : Constant
Bit rate : 1 509 Kbps
Channel(s) : 6 channels
Channel positions : Front: L C R, Side: L R, LFE
Sampling rate : 48.0 KHz
Bit depth : 24 bits
Compression mode : Lossy
Stream size : 1.26 GiB (12%)
Title : DTS 5.1 @ 1509 kbps - Autor's [Mihaliov]
Language : Russian
Default : No
Forced : No
Audio #3
ID : 4
Format : DTS
Format/Info : Digital Theater Systems
Mode : 16
Format settings, Endianness : Big
Codec ID : A_DTS
Duration : 1h 59mn
Bit rate mode : Constant
Bit rate : 1 509 Kbps
Channel(s) : 6 channels
Channel positions : Front: L C R, Side: L R, LFE
Sampling rate : 48.0 KHz
Bit depth : 24 bits
Compression mode : Lossy
Stream size : 1.26 GiB (12%)
Title : DTS 5.1 @ 1509 kbps - Original
Language : English
Default : No
Forced : No
Audio #4
ID : 5
Format : AC-3
Format/Info : Audio Coding 3
Mode extension : CM (complete main)
Format settings, Endianness : Big
Codec ID : A_AC3
Duration : 1h 59mn
Bit rate mode : Constant
Bit rate : 224 Kbps
Channel(s) : 2 channels
Channel positions : Front: L R
Sampling rate : 48.0 KHz
Bit depth : 16 bits
Compression mode : Lossy
Stream size : 191 MiB (2%)
Title : DD 2.0 @ 224 kbps - Commentary with Director John Frankenheimer
Language : English
Default : No
Forced : No
Audio #5
ID : 6
Format : AC-3
Format/Info : Audio Coding 3
Mode extension : CM (complete main)
Format settings, Endianness : Big
Codec ID : A_AC3
Duration : 1h 59mn
Bit rate mode : Constant
Bit rate : 224 Kbps
Channel(s) : 2 channels
Channel positions : Front: L R
Sampling rate : 48.0 KHz
Bit depth : 16 bits
Compression mode : Lossy
Stream size : 191 MiB (2%)
Title : DD 2.0 @ 224 kbps - Commentary with Producer Robert Rosen
Language : English
Default : No
Forced : No
Text #1
ID : 7
Format : UTF-8
Codec ID : S_TEXT/UTF8
Codec ID/Info : UTF-8 Plain Text
Language : Russian
Default : Yes
Forced : Yes
Text #2
ID : 8
Format : UTF-8
Codec ID : S_TEXT/UTF8
Codec ID/Info : UTF-8 Plain Text
Language : English
Default : No
Forced : No
Text #3
ID : 9
Format : UTF-8
Codec ID : S_TEXT/UTF8
Codec ID/Info : UTF-8 Plain Text
Title : Commentary with Director John Frankenheimer
Language : English
Default : No
Forced : No
Text #4
ID : 10
Format : UTF-8
Codec ID : S_TEXT/UTF8
Codec ID/Info : UTF-8 Plain Text
Title : Commentary with Producer Robert Rosen
Language : English
Default : No
Forced : No
Menu
00:00:00.000 : en:Main Titles
00:01:02.562 : en:In the Cool of the Pool
00:03:34.797 : en:Class in Session
00:08:25.671 : en:A Yelp for Help
00:12:53.314 : en:Community Standards
00:14:03.425 : en:Who-Ville
00:20:03.994 : en:96 Daughters
00:22:53.705 : en:Family Tradition
00:25:16.014 : en:Keep it to Yourself
00:30:28.326 : en:Good News Only
00:34:47.168 : en:Cosmic Convergence
00:38:14.125 : en:Brainiest Brain
00:43:24.935 : en:The Perfect Place
00:45:58.547 : en:Horton the Brave
00:49:16.161 : en:Making Trouble
00:53:39.925 : en:Lighter Than a Feather
00:58:04.606 : en:Weird Feeling
01:03:55.414 : en:Being Alone
01:07:08.149 : en:Evil Plans
01:15:07.669 : en:Summer Show
01:18:14.356 : en:Code of Honor
01:20:15.685 : en:Vlad Attacks
01:24:40.909 : en:Warning Who-Ville
01:32:49.272 : en:The Clover Field
01:35:56.876 : en:Finding the Speck
01:38:46.295 : en:Under Attack
01:41:43.013 : en:Admit You're Wrong
01:44:36.561 : en:We Are Here!
01:48:54.110 : en:One More Voice
01:51:15.168 : en:Hearing the Whos
01:57:38.134 : en:No Matter How Small
01:58:06.662 : en:End Titles
01:59:17.150 : en:
Скриншоты:
-Раздача: 24/7-Не забываем говорить спасибо, Вам не сложно, а мне приятно)))
Прошу с раздачи не уходить! Скачал сам, дай и другим скачать!!!
Приятного просмотра)))
Other forum [Profile] [PM]
Similar theme
Forum Topic Author Torrent Replies Last Post
./templates/default/images/folder_dl.gif Развлекательные телепередачи и шоу, приколы и юмор Французская кухня у вас дома с Лаурой Колдер / French Food at Home with Laura Calder [S01-02] (2007-2008) SATRip Omen
0 | 1

0 | 1156

0

2013-01-28 04:32
Omen Latest
./templates/default/images/folder_dl.gif Зарубежное кино Невезучие / La chèvre (Франсис Вебер / Francis Veber) [1981, Франция, Мексика, Мальта, комедия, криминал, приключения, BDRip 720p] Dub + 2x MVO + DVO + Sub Rus, Eng + Original Fre Omen
1 | 0

0 | 362

0

2015-02-19 12:00
Omen Latest
./templates/default/images/folder_dl.gif Современная проза, классика, поэзия Кафка Франц - Процесс [Ирина Ерисанова, 2003 г., 160 kbps, MP3] Omen
1 | 0

0 | 609

0

2016-09-06 01:00
Omen Latest
./templates/default/images/folder_dl.gif Техническая и научно-популярная литература Международный полярный год - Альбанов В. - На юг, к Земле Франца-Иосифа! [2007, PDF/DjVu, RUS] Omen
1 | 0

0 | 475

1

2016-11-29 01:00
Omen Latest
Display posts from previous:    
Reply to topic

The time now is: Today 09:45

All times are GMT + 3 Hours



You cannot post new topics in this forum
You cannot reply to topics in this forum
You cannot edit your posts in this forum
You cannot delete your posts in this forum
You cannot vote in polls in this forum
You cannot attach files in this forum
You cannot download files in this forum