Today is a free download without charge Download

Замороженный / Hibernatus (1969) [720p] WEB-DL

Reply to topic
 
Author
Message

Omen ®

Longevity: 8 years 5 months

Posts: 181087

Торрент-статистика

Post 13-Jan-2013 10:18

[Quote]

- Замороженный / Hibernatus (1969) [720p] WEB-DL
-
«Если дедушку оттаять - хорошего не жди...»
- Название: Замороженный
Оригинальное название: Hibernatus
Год выпуска: 1969
Жанр: Комедия
Выпущено: Gaumont International (Франция), Rizzoli Film S.p.a. (Италия)
Описание фильма:
Юбер де Тартас, богатый промышленник, живет счастливо со своей женой Эдме и сыном. Но внезапно странное событие потрясает их жизнь: на полюсе найден замороженный дедушка его жены, пролежавший в ледяной глыбе 65 лет. Его выводят из состояния зимней спячки, а чтобы не травмировать дедушкину психику, пытаются инсценировать вокруг него жизнь начала XX века. Но в их планы вмешиваются непредвиденные обстоятельства…
Режиссер: Эдуард Молинаро
В ролях: Луи де Фюнес, Микаэль Лонсдаль, Клод Жансак, Бернар Алан, Анник Алан, Оливье Де Фюнес, Эльетт Демэ, Мартина Келли, Жак Легра, Паскаль Маззотти, Клод Пьеплю, Поль Пребуа
Продолжительность: 01:21:52
Перевод: Дублированный, Многоголосый закадровый
Субтитры: Русские

Рейтинг MPAA: PG-13 – лицам до 13 лет обязательное присутствие родителей!!!
Дата мировой премьеры: 10 сентября 1969
Дата DVD премьеры: 10 сентября 1969
Видеокодек: MPEG-4 AVC
Битрейт видео: ~ 4000 Кбит/с
Размер кадра: 1280x544
Качество видео: WEB-DL
Аудио:
1. Dolby Digital Русский 2.0 / 48 kHz / 192 kbps (Дублированный, Мосфильм)
2. Dolby Digital Русский 2.0 / 48 kHz / 192 kbps (Многоголосый закадровый, Cinema Prestige)
3. Dolby Digital Русский 2.0 / 48 kHz / 192 kbps (Многоголосый закадровый, Светла)
4. Dolby Digital Русский 2.0 / 48 kHz / 192 kbps (Многоголосый закадровый, РМГ)
5. Dolby Digital Русский 2.0 / 48 kHz / 192 kbps (Многоголосый закадровый, Петербург 5 канал)
6. Dolby Digital Французский 2.0 / 48 kHz / 160 kbps

MediaInfo

General
Complete name : O:\Hibernatus.1969.720p.WEB-DL.5xRus.Fre.Sub.HDCLUB.mkv
Format : Matroska
Duration : 1h 21mn
Movie name : Hibernatus (1969)
Encoded date : UTC 2010-02-22 21:41:31
Writing application : mkvmerge v5.9.0 ('On The Loose') built on Dec 9 2012 15:37:01
Writing library : libebml v1.3.0 + libmatroska v1.4.0
Video
ID : 1
Format : AVC
Format/Info : Advanced Video Codec
Format profile : [url=mailto:[email protected]][email protected][/url]
Format settings, CABAC : No
Format settings, ReFrames : 2 frames
Muxing mode : Container [email protected]
Codec ID : V_MPEG4/ISO/AVC
Duration : 1h 21mn
Width : 1 280 pixels
Height : 544 pixels
Display aspect ratio : 2.35:1
Frame rate : 24.000 fps
Resolution : 24 bits
Colorimetry : 4:2:0
Scan type : Progressive
Language : French
colour_primaries : BT.709-5, BT.1361, IEC 61966-2-4, SMPTE RP177
transfer_characteristics : BT.709-5, BT.1361
matrix_coefficients : BT.709-5, BT.1361, IEC 61966-2-4 709, SMPTE RP177
Audio #1
ID : 2
Format : AC-3
Format/Info : Audio Coding 3
Format profile : Dolby Digital
Codec ID : A_AC3
Duration : 1h 21mn
Bit rate mode : Constant
Bit rate : 192 Kbps
Channel(s) : 2 channels
Channel positions : L R
Sampling rate : 48.0 KHz
Stream size : 112 MiB (51%)
Title : AC3 48kHz 2.0 192 kbps Dub
Language : Russian
Audio #2
ID : 3
Format : AC-3
Format/Info : Audio Coding 3
Format profile : Dolby Digital
Codec ID : A_AC3
Duration : 1h 21mn
Bit rate mode : Constant
Bit rate : 192 Kbps
Channel(s) : 2 channels
Channel positions : L R
Sampling rate : 48.0 KHz
Stream size : 112 MiB (51%)
Title : AC3 48kHz 2.0 192 kbps MVO Cinema Prestige
Language : Russian
Audio #3
ID : 4
Format : AC-3
Format/Info : Audio Coding 3
Format profile : Dolby Digital
Codec ID : A_AC3
Duration : 1h 21mn
Bit rate mode : Constant
Bit rate : 192 Kbps
Channel(s) : 2 channels
Channel positions : L R
Sampling rate : 48.0 KHz
Stream size : 112 MiB (51%)
Title : AC3 48kHz 2.0 192 kbps MVO Svetla
Language : Russian
Audio #4
ID : 5
Format : AC-3
Format/Info : Audio Coding 3
Format profile : Dolby Digital
Codec ID : A_AC3
Duration : 1h 21mn
Bit rate mode : Constant
Bit rate : 192 Kbps
Channel(s) : 2 channels
Channel positions : L R
Sampling rate : 48.0 KHz
Stream size : 112 MiB (51%)
Title : AC3 48kHz 2.0 192 kbps MVO RMG
Language : Russian
Audio #5
ID : 6
Format : AC-3
Format/Info : Audio Coding 3
Format profile : Dolby Digital
Codec ID : A_AC3
Duration : 1h 21mn
Bit rate mode : Constant
Bit rate : 192 Kbps
Channel(s) : 2 channels
Channel positions : L R
Sampling rate : 48.0 KHz
Stream size : 112 MiB (51%)
Title : AC3 48kHz 2.0 192 kbps MVO Peterburg 5 Channel
Language : Russian
Audio #6
ID : 7
Format : AAC
Format/Info : Advanced Audio Codec
Format version : Version 4
Format profile : LC
Format settings, SBR : No
Codec ID : A_AAC
Duration : 1h 21mn
Channel(s) : 2 channels
Channel positions : L R
Sampling rate : 48.0 KHz
Resolution : 16 bits
Title : AAC 2.0 VBR Original
Language : French
Text
ID : 8
Format : UTF-8
Codec ID : S_TEXT/UTF8
Codec ID/Info : UTF-8 Plain Text
Title : Russian
Language : Russian
Menu
00:00:00.000 : en:Chapitre 1
00:04:50.000 : en:Chapitre 2
00:09:06.000 : en:Chapitre 3
00:11:27.000 : en:Chapitre 4
00:14:32.000 : en:Chapitre 5
00:18:40.000 : en:Chapitre 6
00:25:38.000 : en:Chapitre 7
00:27:19.000 : en:Chapitre 8
00:34:16.000 : en:Chapitre 9
00:43:15.000 : en:Chapitre 10
00:49:57.000 : en:Chapitre 11
00:54:18.000 : en:Chapitre 12
00:59:32.000 : en:Chapitre 13
01:07:16.000 : en:Chapitre 14
01:12:58.000 : en:Chapitre 15
01:19:20.000 : en:Chapitre 16
Скриншоты:
- Без разрешения автора раздачи на первоисточнике запрещается выкладывать на других ресурсах!!!
Для сайта NNM-Club получено разрешение автора раздачи.
-Раздача: 24/7-Не забываем говорить спасибо, Вам не сложно, а мне приятно)))
Прошу с раздачи не уходить! Скачал сам, дай и другим скачать!!!
Приятного просмотра)))
Other forum [Profile] [PM]
Display posts from previous:    
Reply to topic

The time now is: Today 10:41

All times are GMT + 3 Hours



You cannot post new topics in this forum
You cannot reply to topics in this forum
You cannot edit your posts in this forum
You cannot delete your posts in this forum
You cannot vote in polls in this forum
You cannot attach files in this forum
You cannot download files in this forum