Today is a free download without charge Download

Ас из асов / L\'as des as / Ace of Aces (1982) [1080p] BDRip

Reply to topic
 
Author
Message

Omen ®

Longevity: 8 years 5 months

Posts: 181087

Торрент-статистика

Post 13-Jan-2013 10:18

[Quote]

- Ас из асов / L'as des as (Ace of Aces) (1982) BDRip- Название: Ас из асов
Оригинальное название: Ace of Aces / L'as des as
Год выпуска: 1982
Жанр: Комедия, приключения, спорт
Производство: Франция, ФРГ--Режиссер: Жерар Ури
В ролях: Жан-Поль Бельмондо (Jo Cavalier), Мари-Франс Пизье (Gaby Delcourt), Рашид Ферраш (Simon Rosenblum), Франк Хоффманн (Gunther von Beckman), Гюнтер Майснер (Adolf Hitler / Angela Hitler), Бенно Штерценбах (Major Aschbach - Gestapo officer), Ив Пиньо (Emile), Морис Озель, Agnia Bogoslava, Петер Бонке, Ален Давид, Jean-Marie Djebaili-Описание : Джо Кавалье, летчик-ас первой мировой войны, бывший боксер и тренер сборной Франции по боксу, отправляется на Олимпиаду 1936 года в Берлин. Обстоятельства складываются так, что он вынужден взять под свою защиту еврейского мальчика Симона Роземблюма и его многочисленную родню. Также судьба сталкивает его также с очаровательной французской журналисткой…-Sample-Продолжительность: 01:43:53
Перевод: Дублированный, Многоголосый закадровый
Субтитры: Русские, французские (форсированные)
Вид субтитров: Вшитые отключаемые--Качество видео: BDRip
Видеокодек: MPEG-4 AVC
Битрейт видео: ~ 14500 Кбит/с
Размер кадра: 1792x1080
Аудио 1: Русский: AC3, 2 ch, 192 Кбит/с - Дубляж (Киностудия им. М.Горького)
Аудио 2: Русский: AC3, 6 ch, 448 Кбит/с - Многоголосый (RUSCICO)
Аудио 3: Русский: AC3, 2 ch, 192 Кбит/с - Многоголосый (Петербург 5 канал)
Аудио 4: DTS, 2 ch, 960 Кбит/с - Французский-

Mediainfo

General
Unique ID : 248708788109118529851661589175421617767 (0xBB1B91FB963DD4C3B5F5209C044BC667)
Complete name : G:\As.iz.asov.1982.BDRip.(1080p).mkv
Format : Matroska
Format version : Version 2
File size : 11.8 GiB
Duration : 1h 43mn
Overall bit rate : 16.3 Mbps
Movie name : = FILMRUS = rip by Painter
Encoded date : UTC 2013-01-01 20:25:07
Writing application : mkvmerge v5.4.0 ('Piper') built on Mar 10 2012 13:34:39
Writing library : libebml v1.2.3 + libmatroska v1.3.0
Video
ID : 1
Format : AVC
Format/Info : Advanced Video Codec
Format profile : [url=mailto:[email protected]][email protected][/url]
Format settings, CABAC : Yes
Format settings, ReFrames : 4 frames
Codec ID : V_MPEG4/ISO/AVC
Duration : 1h 43mn
Bit rate : 14.5 Mbps
Width : 1 792 pixels
Height : 1 080 pixels
Display aspect ratio : 1.659
Frame rate : 24.000 fps
Color space : YUV
Chroma subsampling : 4:2:0
Bit depth : 8 bits
Scan type : Progressive
Bits/(Pixel*Frame) : 0.312
Stream size : 10.3 GiB (87%)
Writing library : x264 core 125 r2208 d9d2288
Encoding settings : cabac=1 / ref=4 / deblock=1:-3:-3 / analyse=0x3:0x133 / me=umh / subme=10 / psy=1 / psy_rd=1.00:0.05 / mixed_ref=1 / me_range=32 / chroma_me=1 / trellis=2 / 8x8dct=1 / cqm=0 / deadzone=21,11 / fast_pskip=0 / chroma_qp_offset=-3 / threads=6 / lookahead_threads=1 / sliced_threads=0 / nr=0 / decimate=0 / interlaced=0 / bluray_compat=0 / constrained_intra=0 / bframes=9 / b_pyramid=2 / b_adapt=2 / b_bias=0 / direct=3 / weightb=1 / open_gop=0 / weightp=2 / keyint=250 / keyint_min=23 / scenecut=40 / intra_refresh=0 / rc=2pass / mbtree=0 / bitrate=14500 / ratetol=1.0 / qcomp=0.60 / qpmin=10 / qpmax=51 / qpstep=4 / cplxblur=20.0 / qblur=0.5 / ip_ratio=1.40 / pb_ratio=1.30 / aq=1:0.80
Language : French
Default : Yes
Forced : No
Audio #1
ID : 2
Format : AC-3
Format/Info : Audio Coding 3
Format profile : Dolby Digital
Mode extension : CM (complete main)
Format settings, Endianness : Big
Codec ID : A_AC3
Duration : 1h 43mn
Bit rate mode : Constant
Bit rate : 192 Kbps
Channel(s) : 2 channels
Channel positions : Front: L R
Sampling rate : 48.0 KHz
Bit depth : 16 bits
Compression mode : Lossy
Stream size : 143 MiB (1%)
Title : Дубляж
Language : Russian
Default : Yes
Forced : No
Audio #2
ID : 3
Format : AC-3
Format/Info : Audio Coding 3
Mode extension : CM (complete main)
Format settings, Endianness : Big
Codec ID : A_AC3
Duration : 1h 43mn
Bit rate mode : Constant
Bit rate : 448 Kbps
Channel(s) : 6 channels
Channel positions : Front: L C R, Side: L R, LFE
Sampling rate : 48.0 KHz
Bit depth : 16 bits
Compression mode : Lossy
Stream size : 333 MiB (3%)
Title : Многоголосый (RUSCICO)
Language : Russian
Default : No
Forced : No
Audio #3
ID : 4
Format : AC-3
Format/Info : Audio Coding 3
Format profile : Dolby Digital
Mode extension : CM (complete main)
Format settings, Endianness : Big
Codec ID : A_AC3
Duration : 1h 43mn
Bit rate mode : Constant
Bit rate : 192 Kbps
Channel(s) : 2 channels
Channel positions : Front: L R
Sampling rate : 48.0 KHz
Bit depth : 16 bits
Compression mode : Lossy
Stream size : 143 MiB (1%)
Title : Многоголосый (5 канал)
Language : Russian
Default : No
Forced : No
Audio #4
ID : 5
Format : DTS
Format/Info : Digital Theater Systems
Codec ID : A_DTS
Duration : 1h 43mn
Bit rate mode : Constant
Bit rate : 960 Kbps
Channel(s) : 2 channels
Channel positions : Front: L R
Sampling rate : 48.0 KHz
Bit depth : 16 bits
Compression mode : Lossy
Stream size : 713 MiB (6%)
Language : French
Default : No
Forced : No
Text #1
ID : 6
Format : UTF-8
Codec ID : S_TEXT/UTF8
Codec ID/Info : UTF-8 Plain Text
Language : Russian
Default : No
Forced : No
Text #2
ID : 7
Format : UTF-8
Codec ID : S_TEXT/UTF8
Codec ID/Info : UTF-8 Plain Text
Language : French
Default : No
Forced : No
Menu
00:00:00.000 : :Chapter 01
00:09:53.875 : :Chapter 02
00:15:01.000 : :Chapter 03
00:23:20.166 : :Chapter 04
00:28:51.291 : :Chapter 05
00:35:58.125 : :Chapter 06
00:45:04.250 : :Chapter 07
00:54:19.041 : :Chapter 08
01:07:08.125 : :Chapter 09
01:15:31.125 : :Chapter 10
01:25:16.832 : :Chapter 11
01:37:09.457 : :Chapter 12
01:43:52.625 : :Chapter 13
-Скриншоты:
       -Время раздачи: С 09:00 до 24:00
Other forum [Profile] [PM]
Display posts from previous:    
Reply to topic

The time now is: Today 03:50

All times are GMT + 3 Hours



You cannot post new topics in this forum
You cannot reply to topics in this forum
You cannot edit your posts in this forum
You cannot delete your posts in this forum
You cannot vote in polls in this forum
You cannot attach files in this forum
You cannot download files in this forum