Today is a free download without charge Download

Призрак оперы / The Phantom of the Opera (1943) [1080p] BDRip

Reply to topic
 
Author
Message

Omen ®

Longevity: 8 years 5 months

Posts: 181087

Торрент-статистика

Post 13-Jan-2013 10:18

[Quote]

-Призрак оперы / The Phantom of the Opera (1943) BDRip- Русское название: Призрак оперы
Оригинальное название: The Phantom of the Opera
Год выпуска: 1943
Выпущено: США
Жанр: Триллер, Мелодрама, Драма
Описание фильма:
Скромный и тихий скрипач средних лет Эрик Клодин отказывает себе во всем и тратит все сбережения на тайное спонсирование уроков пения юной Кристин Дюбуа, к которой питает тайную страсть. Та об этом не подозревает и не обращает никакого внимания на музыканта, у неё уже есть два поклонника - оперный тенор Анатоль Гаррон и Рауль Д`Обер, инспектор Сюртэ.Доведенный до отчаяния Эрик совершает убийство музыкального издателя, но в результате его лицо становится обезображенным кислотой. Теперь цель его жизни - уничтожить всех, кто окружает Кристин...
Режиссер: Артур Любин
Актеры: Нельсон Эдди, Сузанна Фостер, Клод Рейнс, Эдгар Барье, Лео Каррильо, Джейн Фаррар, Дж. Эдвард Бромберг, Фриц Фельд

Продолжительность: 01:32:38
Перевод: Многоголосый закадровый
Язык субтитров: Английские
Вид субтитров: Вшитые-
Дата мировой премьеры: 12 августа 1943
Дата выхода DVD релиза: 12 марта 2009, «Мьюзик-Трейд»
Релиз от: -Видеокодек: MPEG-4 AVC/H.264
Контейнер: MKV
Битрейт видео: 13497 Кбит/с
Размер кадра: 1456х1080p
Качество видео: BDRip
Аудио #1: Русский (AC3, 2 ch, 192 Кбит/с) [Многоголосый закадровый]
Аудио #2: Английский (DTS, 2 ch, 1509 Кбит/с) [Оригинальный]
Аудио #2: Английский (AC3, 2 ch, 192 Кбит/с) [Комментарии]

MediaInfo

Видео
Идентификатор : 1
Формат : AVC
Формат/Информация : Advanced Video Codec
Профиль формата : [url=mailto:[email protected]][email protected][/url]
Параметр CABAC формата : Да
Параметр ReFrames формата : 4 кадра
Идентификатор кодека : V_MPEG4/ISO/AVC
Продолжительность : 1 ч. 32 м.
Битрейт : 13,5 Мбит/сек
Ширина : 1456 пикселей
Высота : 1080 пикселей
Соотношение сторон : 4:3
Режим частоты кадров : Постоянный
Частота кадров : 23,976 кадра/сек
Цветовое пространство : YUV
Субдискретизация насыщенности : 4:2:0
Битовая глубина : 8 бит
Тип развёртки : Прогрессивная
Бит/(Пиксели*Кадры) : 0.358
Размер потока : 8,54 Гбайт (86%)
Библиотека кодирования : x264 core 129 r2230 1cffe9f
Настройки программы : cabac=1 / ref=4 / deblock=1:-3:-3 / analyse=0x3:0x133 / me=umh / subme=11 / psy=1 / psy_rd=1.10:0.00 / mixed_ref=1 / me_range=32 / chroma_me=1 / trellis=2 / 8x8dct=1 / cqm=0 / deadzone=21,11 / fast_pskip=0 / chroma_qp_offset=-2 / threads=12 / lookahead_threads=2 / sliced_threads=0 / nr=0 / decimate=1 / interlaced=0 / bluray_compat=0 / constrained_intra=0 / bframes=6 / b_pyramid=2 / b_adapt=2 / b_bias=0 / direct=3 / weightb=1 / open_gop=0 / weightp=2 / keyint=240 / keyint_min=22 / scenecut=40 / intra_refresh=0 / rc_lookahead=60 / rc=2pass / mbtree=1 / bitrate=13500 / ratetol=1.0 / qcomp=0.70 / qpmin=0 / qpmax=69 / qpstep=4 / cplxblur=20.0 / qblur=0.5 / vbv_maxrate=50000 / vbv_bufsize=62500 / nal_hrd=none / ip_ratio=1.40 / aq=2:1.00
Язык : English
Default : Нет
Forced : Нет
Аудио #1
Идентификатор : 2
Формат : AC-3
Формат/Информация : Audio Coding 3
Расширение режима : CM (complete main)
Параметр Endianness формата : Big
Идентификатор кодека : A_AC3
Продолжительность : 1 ч. 32 м.
Вид битрейта : Постоянный
Битрейт : 192 Кбит/сек
Каналы : 2 канала
Расположение каналов : Front: L R
Частота : 48,0 КГц
Битовая глубина : 16 бит
Метод сжатия : С потерями
Размер потока : 127 Мбайт (1%)
Заголовок : AC3 2.0 MVO
Язык : Russian
Default : Да
Forced : Нет
Аудио #2
Идентификатор : 3
Формат : DTS
Формат/Информация : Digital Theater Systems
Режим : 16
Параметр Endianness формата : Big
Идентификатор кодека : A_DTS
Продолжительность : 1 ч. 32 м.
Вид битрейта : Постоянный
Битрейт : 1509 Кбит/сек
Каналы : 2 канала
Расположение каналов : Front: L R
Частота : 48,0 КГц
Битовая глубина : 24 бит
Метод сжатия : С потерями
Размер потока : 1000 Мбайт (10%)
Заголовок : DTS 2.0 Original
Язык : English
Default : Нет
Forced : Нет
Аудио #3
Идентификатор : 4
Формат : AC-3
Формат/Информация : Audio Coding 3
Расширение режима : CM (complete main)
Параметр Endianness формата : Big
Идентификатор кодека : A_AC3
Продолжительность : 1 ч. 32 м.
Вид битрейта : Постоянный
Битрейт : 192 Кбит/сек
Каналы : 2 канала
Расположение каналов : Front: L R
Частота : 48,0 КГц
Битовая глубина : 16 бит
Метод сжатия : С потерями
Размер потока : 127 Мбайт (1%)
Заголовок : AC3 2.0 Commentary (Scott MacQueen)
Язык : English
Default : Нет
Forced : Нет
Текст #1
Идентификатор : 5
Формат : UTF-8
Идентификатор кодека : S_TEXT/UTF8
Идентификатор кодека/Информация : UTF-8 Plain Text
Заголовок : Full
Язык : English
Default : Нет
Forced : Нет
Текст #2
Идентификатор : 6
Формат : UTF-8
Идентификатор кодека : S_TEXT/UTF8
Идентификатор кодека/Информация : UTF-8 Plain Text
Заголовок : Commentary (Scott MacQueen)
Язык : English
Default : Нет
Forced : Нет
Меню
00:00:00.000 : en:00:00:00.000
00:04:22.220 : en:00:04:22.220
00:07:30.950 : en:00:07:30.950
00:10:28.711 : en:00:10:28.711
00:19:10.107 : en:00:19:10.107
00:22:44.655 : en:00:22:44.655
00:26:05.397 : en:00:26:05.397
00:30:03.010 : en:00:30:03.010
00:32:34.411 : en:00:32:34.411
00:35:41.973 : en:00:35:41.973
00:40:42.273 : en:00:40:42.273
00:57:56.264 : en:00:57:56.264
01:05:02.232 : en:01:05:02.232
01:14:42.812 : en:01:14:42.812
01:18:21.530 : en:01:18:21.530
01:23:29.338 : en:01:23:29.338
01:29:05.799 : en:01:29:05.799
01:31:45.166 : en:01:31:45.166

BV

Награды

Оскар, 1944 год
Победитель:
Лучшая работа оператора (цветные фильмы)
Лучшая работа художника (цветные фильмы)
Номинации:
Лучший звук
Лучший саундтрек для музыкальных картин
-Скриншоты:
           
Время раздачи: с 10:00 до 00:30
Other forum [Profile] [PM]
Display posts from previous:    
Reply to topic

The time now is: Today 06:10

All times are GMT + 3 Hours



You cannot post new topics in this forum
You cannot reply to topics in this forum
You cannot edit your posts in this forum
You cannot delete your posts in this forum
You cannot vote in polls in this forum
You cannot attach files in this forum
You cannot download files in this forum