Today is a free download without charge Download

Злоключения Альфреда / Malheurs d\'Alfred, Les (1972) [720p] WEB-DL

Reply to topic
 
Author
Message

Omen ®

Longevity: 8 years 5 months

Posts: 181087

Торрент-статистика

Post 13-Jan-2013 10:18

[Quote]

- Злоключения Альфреда / Malheurs d'Alfred, Les (1972) [720p] WEB-DL
- - Название: Злоключения Альфреда
Оригинальное название: Malheurs d'Alfred, Les
Год выпуска: 1972
Жанр: Комедия
Выпущено: Франция, Gaumont International
Описание фильма:
Альфреду Дюмонтье с рождения катастрофически не везло: в семь лет он чуть было не попал в плен к фашистам, отец и мать умерли рано, девушка бросила его и ушла в монастырь. Пресытившись несчастьями, Альфред решил утопиться. И надо же было такому случиться, что именно на том самом мосту, с которого бросился в воду Альфред, в ту самую ночь, и в тот же час, туда пришла такая же невезучая бедолага — Агата Бодар, которую бросил известный телеведущий. Знай они, что сулит им эта случайная встреча… то они, наверное, всё равно бы пошли на тот мост, чтобы встретиться, и никогда не расставаться.
Режиссер: Пьер Ришар
В ролях: Пьер Ришар, Анни Дюпре, Жан Карме, Поль Пребуа, Поль Ле Персон, Марио Давид, Ив Робер, Робер Дальбан
Продолжительность: 01:33:02
Перевод: Многоголосый закадровый
Субтитры: нет

Рейтинг MPAA: PG 13– лицам до 13 лет обязательное присутствие родителей!!!
Видеокодек: MPEG-4 AVC
Битрейт видео: ~ 4000 Кбит/с
Размер кадра: 1208x720
Качество видео: WEB-DL
Аудио:
1. Dolby Digital Русский 2.0 / 48 kHz / 192 kbps (Многоголосый закадровый, РенТВ)
2. Dolby Digital Русский 2.0 / 48 kHz / 192 kbps (Многоголосый закадровый, Кипарис)
3. Dolby Digital Французский 2.0 / 48 kHz / 160 kbps

Из книги «3500 кинорецензий»

Замечательная комедия, один из первых фильмов с участем гениального Пьера Ришара, который наряду с более ранним «Рассеянным» сделал «лицо» Ришара в кино и показал всему миру эту невероятно удачно найденную комическую маску. В этом фильме многое перекликается с «Рассеянным». Во-первых, оба фильма — полностью детища самого Ришара, будучи уже не очень молодым и совсем не знаменитым театральным актером, которого вовсе не ждали в кинематографе, он решил штурмовать его самостоятельно, сняв два прославивших его шедевра.
Оба фильма стали золотой классикой французской комедии, и чисто ришаровскими произведениями: в «Злоключениях Альфреда» так же, как и в «Расеянном», мы видим героя Ришара — милого чудака, обаятельного и безгрешного неудачника с копной кудрявых солнечных волос, нелепого и неуклюжего, терпеливо и безропотно сносящего все обиды и унижения, но в конце концов срывающего самый большой куш и обретающего любовь самой красивой девушки. Этот образ достиг апогея в чуть более позднем «Высоком блондине», и перерос в трагикомически светлый образ в «Игрушке» и трилогии Вебера о «Папашах», «Невезучих» и «Беглецах».
Но сам Ришар в своих ранних комедиях ни над чем не задумывается и в его фильмах нет никакого подтекста — это открытые, удивительно смешные и оптимистичные комедии, полные абсурдных ситуаций, основанных на полном отрыве героя от реальности. Они немножко романтичные, чуть-чуть грустные, но все же исключительно развлекательные. Ришар здесь показывает чудеса буффонного искусства, а его пластика — это что-то невероятное!
В фильме занят, кроме самого Ришара целый набор харизматичных и забавнейших французских актеров, каждому из которых Ришар отвел свой сольный номер, но особо запоминаются жабообразный Жан Карме и красавица Анни Дюпрей. Конечно, говорить о настоящем актерстве пока рановато, здесь имеет место лишь очень яркая маска, схожая с Пьеро, или с ранними работами Клода Зиди с квартетом Шарло, которая лишь позже перерастет в один из самых громких и символичных образов во французском кино.
Это практически шедевр — совершенно безумная, почти абсурдная комедия, полная гэгов, буффонады и французского шарма. Она доставит огромное удовольствие всем поклонникам французской комедии!

MediaInfo

General
Complete name : O:\Les.Malheurs.d'Alfred.1972.720p.WEB-DL.2xRus.Fre.HDCLUB.mkv
Format : Matroska
File size : 2.96 GiB
Duration : 1h 33mn
Overall bit rate : 4 556 Kbps
Movie name : Les Malheurs d'Alfred (1972)
Encoded date : UTC 2010-02-22 21:41:31
Writing application : mkvmerge v5.9.0 ('On The Loose') built on Dec 9 2012 15:37:01
Writing library : libebml v1.3.0 + libmatroska v1.4.0
Video
ID : 1
Format : AVC
Format/Info : Advanced Video Codec
Format profile : [url=mailto:[email protected]][email protected][/url]
Format settings, CABAC : No
Format settings, ReFrames : 2 frames
Muxing mode : Container [email protected]
Codec ID : V_MPEG4/ISO/AVC
Duration : 1h 33mn
Width : 1 208 pixels
Height : 720 pixels
Display aspect ratio : 1.678
Frame rate : 24.000 fps
Resolution : 24 bits
Colorimetry : 4:2:0
Scan type : Progressive
Language : French
colour_primaries : BT.709-5, BT.1361, IEC 61966-2-4, SMPTE RP177
transfer_characteristics : BT.709-5, BT.1361
matrix_coefficients : BT.709-5, BT.1361, IEC 61966-2-4 709, SMPTE RP177
Audio #1
ID : 2
Format : AC-3
Format/Info : Audio Coding 3
Format profile : Dolby Digital
Codec ID : A_AC3
Duration : 1h 33mn
Bit rate mode : Constant
Bit rate : 192 Kbps
Channel(s) : 2 channels
Channel positions : L R
Sampling rate : 48.0 KHz
Stream size : 128 MiB (4%)
Title : AC3 48kHz 2.0 192 kbps MVO RenTV
Language : Russian
Audio #2
ID : 3
Format : AC-3
Format/Info : Audio Coding 3
Format profile : Dolby Digital
Codec ID : A_AC3
Duration : 1h 33mn
Bit rate mode : Constant
Bit rate : 192 Kbps
Channel(s) : 2 channels
Channel positions : L R
Sampling rate : 48.0 KHz
Stream size : 128 MiB (4%)
Title : AC3 48kHz 2.0 192 kbps MVO Kiparis
Language : Russian
Audio #3
ID : 4
Format : AAC
Format/Info : Advanced Audio Codec
Format version : Version 4
Format profile : LC
Format settings, SBR : No
Codec ID : A_AAC
Duration : 1h 33mn
Channel(s) : 2 channels
Channel positions : L R
Sampling rate : 48.0 KHz
Resolution : 16 bits
Title : AAC 2.0 VBR Original
Language : French
Menu
00:00:00.000 : en:Chapitre 1
00:03:56.000 : en:Chapitre 2
00:05:59.000 : en:Chapitre 3
00:09:39.000 : en:Chapitre 4
00:13:54.000 : en:Chapitre 5
00:21:50.000 : en:Chapitre 6
00:29:30.000 : en:Chapitre 7
00:32:10.000 : en:Chapitre 8
00:36:04.000 : en:Chapitre 9
00:37:50.000 : en:Chapitre 10
00:45:46.000 : en:Chapitre 11
00:50:08.000 : en:Chapitre 12
00:54:37.000 : en:Chapitre 13
00:58:55.000 : en:Chapitre 14
01:03:44.000 : en:Chapitre 15
01:09:16.000 : en:Chapitre 16
01:11:27.000 : en:Chapitre 17
01:13:32.000 : en:Chapitre 18
01:17:09.000 : en:Chapitre 19
01:20:10.000 : en:Chapitre 20
01:25:51.000 : en:Chapitre 21
01:29:33.000 : en:Chapitre 22
01:31:30.000 : en:Chapitre 23
Скриншоты:
- Без разрешения автора раздачи на первоисточнике запрещается выкладывать на других ресурсах!!!
Для сайта NNM-Club получено разрешение автора раздачи.
-Раздача: 24/7-Не забываем говорить спасибо, Вам не сложно, а мне приятно)))
Прошу с раздачи не уходить! Скачал сам, дай и другим скачать!!!
Приятного просмотра)))
Other forum [Profile] [PM]
Display posts from previous:    
Reply to topic

The time now is: Today 09:21

All times are GMT + 3 Hours



You cannot post new topics in this forum
You cannot reply to topics in this forum
You cannot edit your posts in this forum
You cannot delete your posts in this forum
You cannot vote in polls in this forum
You cannot attach files in this forum
You cannot download files in this forum