Today is a free download without charge Download

Пакет (1965) DVD5

Reply to topic
 
Author
Message

Omen ®

Longevity: 6 years 5 months

Posts: 181112

Торрент-статистика

Post 13-Jan-2013 10:18

[Quote]

-Пакет (1965) DVD5- Русское название: Пакет
Год выпуска: 1965
Жанр: Военный, Комедия
Описание фильма:
Действие фильма происходит в годы гражданской войны. Красноармеец Трофимов (Валерий Золотухин) получает задание доставить донесение С.М.Буденному. В пути герой попадает в плен к белогвардейцам.
Режиссер: Владимир Назаров
Актеры: Валерий Золотухин, Анатолий Кузнецов, Борис Новиков, Геннадий Сайфулин, Владимир Назаров, Иван Косых, Леонид Чубаров, Павел Шпрингфельд Описание: По одноименной повести Л.Пантелеева.
Продолжительность: 01:07:43

Видеокодек: MPEG-2
Битрейт видео: ~8263 Кбит/сек
Размер кадра: 720x576
Качество видео: DVD5
Аудиокодек: AC3 2.0
Битрейт аудио: 384 Кбит/сек

Знаете ли вы, что...

Кто же не знает этой бронзовой конячки, «засветившейся» в «Бриллиантовой руке» и «Служебном романе»! Тот самый конь, которого осматривал со всех сторон Семен Семенович в комиссионном магазине.Та самая статуя, которую профсоюзная Шура взвалила на Новосельцева, решив осчастливить ценным подарком «нашу вычислительную машину Боровских» по случаю стукнувшего ему полтинника.«Бриллиантовую руку» снимали в 1968 году. Между тем еще в 1965-м вышел на экраны фильм «Пакет» (режиссер Владимир Назаров) по одноименному детскому произведению Леонида Пантелеева о гражданской войне, где главную роль красноармейца Пети Трофимова сыграл Валерий Золотухин. В «Пакете» одна из сцен происходит в белом штабе, украшенном всяческими статуями. И среди них без труда можно узнать все того же «Персея и Пегаса». На фоне этой скульптуры белый офицер (Борис Новиков) допрашивал Петю Трофимова.
А затем герой Золотухина примостился прямо возле нее, чтобы сгрызть пакет товарищу Буденному, который (пакет) мог его выдать...
Любимая лошадь «Мосфильма»
Еще о любимой лошади «Мосфильма»

MediaInfo:

Общее
Полное имя : G:\new 092012\Пакет (1965) DVD\PAKET\VIDEO_TS\VTS_01_1.VOB
Формат : MPEG-PS
Размер файла : 1024 Мбайт
Продолжительность : 16 м.
Режим общего битрейта : Переменный
Общий поток : 8822 Кбит/сек
Библиотека кодирования : (c) 1998-2007 Womble Multimedia, Inc. / MPEG Video Wizard (12/2007) / Jan 12 2008
Видео
Идентификатор : 224 (0xE0)
Формат : MPEG Video
Версия формата : Version 2
Профиль формата : [email protected]
Параметр BVOP формата : Да
Параметр матрицы формата : Выборочная
Параметр GOP формата : Variable
Продолжительность : 16 м.
Вид битрейта : Переменный
Битрейт : 8263 Кбит/сек
Максимальный битрейт : 9500 Кбит/сек
Ширина : 720 пикселей
Высота : 576 пикселей
Соотношение сторон : 4:3
Частота кадров : 25,000 кадров/сек
Стандарт вещания : PAL
Цветовое пространство : YUV
Субдискретизация насыщенности : 4:2:0
Битовая глубина : 8 бит
Тип развёртки : Чересстрочная
Порядок развёртки : Верхнее поле первое
Метод сжатия : С потерями
Бит/(Пиксели*Кадры) : 0.797
Размер потока : 959 Мбайт (94%)
Выравнивание : (c) 1998-2007 Womble Multimedia, Inc. / MPEG Video Wizard (12/2007) / Jan 12 2008
Заголовок : (c) 1998-2007 Womble Multimedia, Inc. / MPEG Video Wizard (12/2007) / Jan 12 2008
Библиотека кодирования : (c) 1998-2007 Womble Multimedia, Inc. / MPEG Video Wizard (12/2007) / Jan 12 2008
Аудио
Идентификатор : 189 (0xBD)-128 (0x80)
Формат : AC-3
Формат/Информация : Audio Coding 3
Расширение режима : CM (complete main)
Параметр Endianness формата : Big
Режим смешивания : DVD-Video
Продолжительность : 16 м.
Вид битрейта : Постоянный
Битрейт : 384 Кбит/сек
Каналы : 2 канала
Расположение каналов : Front: L R
Частота : 48,0 КГц
Битовая глубина : 16 бит
Метод сжатия : С потерями
Задержка видео : -80 мс.
Размер потока : 44,6 Мбайт (4%)
Меню

DVDInfo:

Title: PAKET
Size: 4.16 Gb ( 4 365 058,00 KBytes ) - DVD-5
Enabled regions: 1, 2, 3, 4, 5, 6, 7, 8
VTS_01 :
Play Length: 01:07:43
Video: PAL 4:3 (720x576) VBR, Letterboxed
Audio:
Russian (Dolby AC3, 2 ch)
* Menus Information *
VIDEO_TS Menu
Video:
PAL 4:3 (720x576) VBR
Letterboxed
Audio:
Not specified (Dolby AC3, 2 ch)
English Language Unit :
Title Menu
VTS_01 Menu
Video:
PAL 4:3 (720x576) VBR
Audio:
Not specified (Dolby AC3, 2 ch)
English Language Unit :
Root Menu

MenuDVD:

   
Скриншоты:
         
         
Коробка DVD.jpg
Диск DVD.jpg
Other forum [Profile] [PM]
Similar theme
Forum Topic Author Torrent Replies Last Post
./templates/default/images/folder_dl.gif Обучающее видео Роман Ерин | Гитарная революция. Полный пакет (2015) CamRip [H.264/720p] Omen
1 | 0

0 | 1621

34

2015-10-11 23:55
Omen Latest
Display posts from previous:    
Reply to topic

The time now is: Today 14:56

All times are GMT + 3 Hours



You cannot post new topics in this forum
You cannot reply to topics in this forum
You cannot edit your posts in this forum
You cannot delete your posts in this forum
You cannot vote in polls in this forum
You cannot attach files in this forum
You cannot download files in this forum