Сегодня идет свободное скачивание без начисления Download

Кавалер Золотой Звезды (1950) DVD5

Ответить на тему
 
Автор
Сообщение

Omen ®

Стаж: 5 лет 10 месяцев

Сообщений: 184329

Торрент-статистика

Пост 13-Янв-2013 10:18

[Цитировать]

-Кавалер Золотой Звезды (1950) DVD5- Русское название: Кавалер Золотой Звезды
Год выпуска: 1950
Жанр: Драма
Описание фильма:
По одноименному роману Семена Бабаевского.Фронтовик, Герой Советского Союза Сергей Тутаринов после войны вместе с фронтовым другом возвращается в родную станицу, желая принять активное участие в ее восстановлении. Его начинания горячо поддерживает секретарь райкома партии, однако они не находят отклика у инертного председателя райисполкома.Возглавив райисполком, Тутаринов упорно преодолевает все трудности и начинает строительство районной электростанции...Но не только заботами о народном хозяйстве живет кавалер Золотой Звезды Героя: с первых минут фильма развивается тема любви, тема строительства личного, семейного счастья...
Режиссер: Юлий Райзман
Актеры: Сергей Бондарчук, Анатолий Чемодуров, Кира Канаева, Борис Чирков, Николай Комиссаров, Владимир Ратомский, Николай Гриценко, Иван Переверзев, Петр Кирюткин, Даниил Ильченко, Мария Яроцкая, Тамара Носова, Степан Каюков, Александра Панова, Борис Битюков
Продолжительность: 01:50:35

Видеокодек: MPEG-2
Битрейт видео: ~3000 Кбит/сек
Размер кадра: 720x576
Качество видео: DVD5
Аудиокодек: AC3 2.0
Битрейт аудио: 192 Кбит/сек

MenuDVD:

   

MediaInfo:

Общее
Полное имя : F:\1112\Кавалер Золотой Звезды\Кавалер Золотой Звезды DVD\VIDEO_TS\VTS_03_1.VOB
Формат : MPEG-PS
Размер файла : 1000 Мбайт
Продолжительность : 42 м.
Режим общего битрейта : Переменный
Общий поток : 3269 Кбит/сек
Видео
Идентификатор : 224 (0xE0)
Формат : MPEG Video
Версия формата : Version 2
Профиль формата : [email protected]
Параметр BVOP формата : Да
Параметр матрицы формата : Выборочная
Параметр GOP формата : Variable
Продолжительность : 42 м.
Вид битрейта : Переменный
Битрейт : 3000 Кбит/сек
Ширина : 720 пикселей
Высота : 576 пикселей
Соотношение сторон : 4:3
Частота кадров : 25,000 кадров/сек
Стандарт вещания : PAL
Цветовое пространство : YUV
Субдискретизация насыщенности : 4:2:0
Битовая глубина : 8 бит
Тип развёртки : Чересстрочная
Порядок развёртки : Верхнее поле первое
Метод сжатия : С потерями
Бит/(Пиксели*Кадры) : 0.289
Размер потока : 921 Мбайт (92%)
Аудио
Идентификатор : 189 (0xBD)-128 (0x80)
Формат : AC-3
Формат/Информация : Audio Coding 3
Расширение режима : CM (complete main)
Параметр Endianness формата : Big
Режим смешивания : DVD-Video
Продолжительность : 42 м.
Вид битрейта : Постоянный
Битрейт : 192 Кбит/сек
Каналы : 2 канала
Расположение каналов : Front: L R
Частота : 48,0 КГц
Битовая глубина : 16 бит
Метод сжатия : С потерями
Размер потока : 58,7 Мбайт (6%)
Меню

DVDInfo:

Title: Кавалер Золотой Звезды DVD
Size: 2.63 Gb ( 2 759 504,00 KBytes ) - DVD-5
Enabled regions: 1, 2, 3, 4, 5, 6, 7, 8
VTS_01 :
Play Length: 00:00:27
Video: PAL 4:3 (720x576) VBR
Audio:
Not specified (Dolby AC3, 2 ch)
VTS_02 :
Play Length: 00:00:08
Video: PAL 4:3 (720x576) VBR
Audio:
Not specified (Dolby AC3, 2 ch)
VTS_03 :
Play Length: 01:50:35
Video: PAL 4:3 (720x576) VBR
Audio:
Russian (Dolby AC3, 2 ch)
* Menus Information *
VIDEO_TS Menu
Video:
PAL 4:3 (720x576) VBR
Audio:
Not specified (LinearPCM, 2 ch)
English Language Unit :
Title Menu
VTS_01 Menu
Video:
PAL 4:3 (720x576) VBR
Audio:
Not specified (Dolby AC3, 2 ch)
English Language Unit :
Root Menu
Chapter (PTT) Menu
VTS_02 Menu
Video:
NTSC 4:3 (720x480) VBR
Auto Pan&Scan, Auto Letterboxed
English Language Unit :
Root Menu
Chapter (PTT) Menu
VTS_03 Menu
Video:
NTSC 4:3 (720x480) VBR
Auto Pan&Scan, Auto Letterboxed
English Language Unit :
Root Menu
Chapter (PTT) Menu
Скриншоты:
         
         

Рецензия, отзыв о фильме

Один из знаковых фильмов советского кинематографа 1940-1950-х гг., образец кинематографического соцреализма.
Сталинская премия 1 степени (1952).
Лидер проката (1951, 3 место) - 21.5 млн. зрителей.
Все релизы Кавалер Золотой Звезды на nnm-club
Вне форума [Профиль] [ЛС]
Показать сообщения:    
Ответить на тему

Текущее время: Сегодня 19:43

Часовой пояс: GMT + 3



Вы не можете начинать темы
Вы не можете отвечать на сообщения
Вы не можете редактировать свои сообщения
Вы не можете удалять свои сообщения
Вы не можете голосовать в опросах
Вы не можете прикреплять файлы к сообщениям
Вы не можете скачивать файлы