Today is a free download without charge Download

Голубые дороги (1947) DVD5

Reply to topic
 
Author
Message

Omen ®

Longevity: 6 years 5 months

Posts: 181112

Торрент-статистика

Post 13-Jan-2013 10:18

[Quote]

-Голубые дороги (1947) DVD5- Русское название: Голубые дороги
Производство: Киевская киностудия
Год выпуска: 1947
Жанр: Военный, Драма
Описание фильма:
Окончена война, но еще таятся в глубинах моря фашистские мины. В одесском порту обнаружена необычная мина, капитан Ратанов приступает к ее обезвреживанию. Неожиданно гремит взрыв, капитан получает тяжелое ранение. Выздоровев, он возвращается к своей работе, и теперь он не может ошибиться…
Режиссер: Владимир Браун
Актеры: Павел Кадочников, Марина Калинкина, Виктор Добровольский, Сергей Столяров, Юрий Любимов, Елена Измайлова, Михаил Романов, Владимир Освецимский, Аркадий Аркадьев
Продолжительность: 01:21:41

Видеокодек: MPEG-2
Битрейт видео: ~5000 Кбит/сек
Размер кадра: 720x576
Качество видео: DVD5
Аудиокодек: AC3 2.0
Битрейт аудио: 384 Кбит/сек

DVDInfo:

Title: Golubie_dorogy
Size: 3.21 Gb ( 3 368 530,00 KBytes ) - DVD-5
Enabled regions: 1, 2, 3, 4, 5, 6, 7, 8
VTS_01 :
Play Length: 00:00:27
Video: PAL 4:3 (720x576) VBR
Audio:
Not specified (Dolby AC3, 2 ch)
VTS_02 :
Play Length: 01:21:41
Video: PAL 4:3 (720x576) VBR
Audio:
Russian (Dolby AC3, 2 ch)
* Menus Information *
VIDEO_TS Menu
Video:
PAL 4:3 (720x576) VBR
Audio:
Not specified (LinearPCM, 2 ch)
English Language Unit :
Title Menu
VTS_01 Menu
Video:
PAL 4:3 (720x576) VBR
Audio:
Not specified (Dolby AC3, 2 ch)
English Language Unit :
Root Menu
Chapter (PTT) Menu
VTS_02 Menu
Video:
NTSC 4:3 (720x480) VBR
Auto Pan&Scan, Auto Letterboxed
English Language Unit :
Root Menu
Chapter (PTT) Menu

MediaInfo:

Общее
Полное имя : G:\new 092012\!\Голубые дороги (1947) DVD\Golubie_dorogy\VIDEO_TS\VTS_02_1.VOB
Формат : MPEG-PS
Размер файла : 1000 Мбайт
Продолжительность : 25 м.
Режим общего битрейта : Переменный
Общий поток : 5487 Кбит/сек
Видео
Идентификатор : 224 (0xE0)
Формат : MPEG Video
Версия формата : Version 2
Профиль формата : [email protected]
Параметр BVOP формата : Да
Параметр матрицы формата : Выборочная
Параметр GOP формата : M=3, N=15
Продолжительность : 25 м.
Вид битрейта : Переменный
Битрейт : 5000 Кбит/сек
Ширина : 720 пикселей
Высота : 576 пикселей
Соотношение сторон : 4:3
Частота кадров : 25,000 кадров/сек
Стандарт вещания : PAL
Цветовое пространство : YUV
Субдискретизация насыщенности : 4:2:0
Битовая глубина : 8 бит
Тип развёртки : Чересстрочная
Порядок развёртки : Верхнее поле первое
Метод сжатия : С потерями
Бит/(Пиксели*Кадры) : 0.482
Размер потока : 910 Мбайт (91%)
Аудио
Идентификатор : 189 (0xBD)-128 (0x80)
Формат : AC-3
Формат/Информация : Audio Coding 3
Расширение режима : ME (music and effects)
Параметр Endianness формата : Big
Режим смешивания : DVD-Video
Продолжительность : 25 м.
Вид битрейта : Постоянный
Битрейт : 384 Кбит/сек
Каналы : 2 канала
Расположение каналов : Front: L R
Частота : 48,0 КГц
Битовая глубина : 16 бит
Метод сжатия : С потерями
Размер потока : 70,0 Мбайт (7%)
Меню

MenuDVD:

   
Скриншоты:
         
         
Все релизы Голубые дороги на NNM-CLUB
Other forum [Profile] [PM]
Display posts from previous:    
Reply to topic

The time now is: Today 15:16

All times are GMT + 3 Hours



You cannot post new topics in this forum
You cannot reply to topics in this forum
You cannot edit your posts in this forum
You cannot delete your posts in this forum
You cannot vote in polls in this forum
You cannot attach files in this forum
You cannot download files in this forum