Сегодня идет свободное скачивание без начисления Download

За облаками - небо (1973) DVD5

Ответить на тему
 
Автор
Сообщение

Omen ®

Стаж: 5 лет 10 месяцев

Сообщений: 184329

Торрент-статистика

Пост 13-Янв-2013 10:18

[Цитировать]

-За облаками - небо (1973) DVD5- Русское название: За облаками - небо
Год выпуска: 1973
Жанр: Военный, Драма
Описание фильма:
Фильм посвящен летчикам-испытателям и конструкторам которые в первые послевоенные годы рискуя жизнью осваивали новую реактивную технику.Кинокартина дает возможность представить - какого нечеловеческого напряжения стоило поднять страну в тех условиях.
Режиссер: Юрий Егоров
Актеры: Геннадий Сайфулин, Владислав Дворжецкий, Юрий Назаров, Сергей Никоненко, Лариса Малеванная, Михаил Глузский, Всеволод Сафонов, Игорь Ясулович, Елена Санаева, Данута Столярская, Борис Белов, Николай Волков (младший), Исай Гуров, Вадим Захарченко, Афанасий Кочетков, Григорий Лямпе, Станислав Михин, Надежда Репина, Наина Хонина
Продолжительность: 01:35:46

Видеокодек: MPEG-2
Битрейт видео: ~6415 Кбит/сек
Размер кадра: 720x576
Качество видео: DVD5
Аудиокодек: AC3 2.0
Битрейт аудио: 256 Кбит/сек

MediaInfo:

Общее
Полное имя : C:\!!!!\За облаками - небо (1973) DVD\За облаками - небо (1973) DVD\VIDEO_TS\VTS_01_1.VOB
Формат : MPEG-PS
Размер файла : 1000 Мбайт
Продолжительность : 20 м.
Режим общего битрейта : Переменный
Общий поток : 6807 Кбит/сек
Видео
Идентификатор : 224 (0xE0)
Формат : MPEG Video
Версия формата : Version 2
Профиль формата : [email protected]
Параметр BVOP формата : Да
Параметр матрицы формата : Выборочная
Параметр GOP формата : Variable
Продолжительность : 20 м.
Вид битрейта : Переменный
Битрейт : 6415 Кбит/сек
Максимальный битрейт : 8000 Кбит/сек
Ширина : 720 пикселей
Высота : 576 пикселей
Соотношение сторон : 4:3
Частота кадров : 25,000 кадров/сек
Стандарт вещания : PAL
Цветовое пространство : YUV
Субдискретизация насыщенности : 4:2:0
Битовая глубина : 8 бит
Тип развёртки : Чересстрочная
Порядок развёртки : Верхнее поле первое
Метод сжатия : С потерями
Бит/(Пиксели*Кадры) : 0.619
Размер потока : 943 Мбайт (94%)
Основные цвета : BT.601 NTSC
Характеристики трансфера : BT.601
Коэффициенты матрицы : BT.601
Аудио
Идентификатор : 189 (0xBD)-128 (0x80)
Формат : AC-3
Формат/Информация : Audio Coding 3
Расширение режима : CM (complete main)
Параметр Endianness формата : Big
Режим смешивания : DVD-Video
Продолжительность : 20 м.
Вид битрейта : Постоянный
Битрейт : 256 Кбит/сек
Каналы : 2 канала
Расположение каналов : Front: L R
Частота : 48,0 КГц
Битовая глубина : 16 бит
Метод сжатия : С потерями
Размер потока : 37,6 Мбайт (4%)
Меню

DVDInfo:

Title: За облаками - небо (1973) DVD
Size: 4.33 Gb ( 4 542 434,00 KBytes ) - DVD-5
Enabled regions: 1, 2, 3, 4, 5, 6, 7, 8
VTS_01 :
Play Length: 00:00:44+01:35:46
Video: PAL 4:3 (720x576) VBR, Letterboxed
Audio:
English (Dolby AC3, 2 ch)
* Menus Information *
VIDEO_TS Menu
Video:
PAL 4:3 (720x576) VBR
Letterboxed
English Language Unit :
Title Menu
VTS_01 Menu
Video:
PAL 4:3 (720x576) VBR
Audio:
Not specified (Dolby AC3, 2 ch)
English Language Unit :
Root Menu

MenuDVD:

   
Скриншоты:
         
         
Все релизы За облаками - небо на nnm-club
Вне форума [Профиль] [ЛС]
Показать сообщения:    
Ответить на тему

Текущее время: Сегодня 02:25

Часовой пояс: GMT + 3



Вы не можете начинать темы
Вы не можете отвечать на сообщения
Вы не можете редактировать свои сообщения
Вы не можете удалять свои сообщения
Вы не можете голосовать в опросах
Вы не можете прикреплять файлы к сообщениям
Вы не можете скачивать файлы