Сегодня идет свободное скачивание без начисления Download

Бархатный сезон (1978) DVD5

Ответить на тему
 
Автор
Сообщение

Omen ®

Стаж: 5 лет 10 месяцев

Сообщений: 184329

Торрент-статистика

Пост 13-Янв-2013 10:18

[Цитировать]

-Бархатный сезон (1978) DVD5- Русское название: Бархатный сезон
Год выпуска: 1978
Жанр: Драма, Военный
Производство: СССР, Швейцария
Описание фильма:
Осенью 38-го года три бывших бойца интернациональной бригады — русский, француз и американка — попадают в курортный городок на границе Испании и Франции.
Встретив медсестру, которая должна переправить на Корсику испанских детей, они решают помочь ей. Однако в городе вдруг вспыхивает фашистский мятеж, и дети оказываются заложниками преступников.
Режиссер: Владимир Павлович
Актеры: Юозас Будрайтис, Татьяна Сидоренко, Александр Лазарев, Валентина Игнатьева, Сергей Бондарчук, Иннокентий Смоктуновский, Николай Крючков, Юрий Яковлев, Альгимантас Масюлис, Игорь Васильев и др.
Продолжительность: 01:36:30
Рейтинг G — Нет возрастных ограничений
Видеокодек: MPEG-2
Битрейт видео: ~5500 Кбит/сек
Размер кадра: 720 х 576
Качество видео: DVD5
Аудиокодек: AC3 2.0
Битрейт аудио: 192 Кбит/сек

MediaInfo

Общее
Полное имя : I:\DVD\BARH_SEZON\VIDEO_TS\VTS_02_2.VOB
Формат : MPEG-PS
Размер файла : 1024 Мбайт
Продолжительность : 24 м.
Общий поток : 5799 Кбит/сек
Видео
Идентификатор : 224 (0xE0)
Формат : MPEG Video
Версия формата : Version 2
Профиль формата : Mai[email protected]
Параметр BVOP формата : Да
Параметр матрицы формата : По умолчанию
Параметры GOP формата : M=3, N=15
Продолжительность : 24 м.
Вид битрейта : Постоянный
Битрейт : 5500 Кбит/сек
Ширина : 720 пикс.
Высота : 576 пикс.
Соотношение сторон : 4:3
Частота кадров : 25,000 кадр/сек
Стандарт вещания : PAL
Цветовое пространство : YUV
Подвыборка цветности : 4:2:0
Битовая глубина : 8 бит
Тип развёртки : Чересстрочная
Порядок развёртки : Верхнее поле первое
Метод сжатия : С потерями
Бит/(Пиксели*Кадры) : 0.530
Размер потока : 969 Мбайт (95%)
Аудио
Идентификатор : 189 (0xBD)-128 (0x80)
Формат : AC-3
Формат/Информация : Audio Coding 3
Расширение режима : CM (complete main)
Режим смешивания : DVD-Video
Продолжительность : 24 м.
Вид битрейта : Постоянный
Битрейт : 192 Кбит/сек
Канал(ы) : 2 канала(ов)
Расположение каналов : Front: L R
Частота : 48,0 КГц
Битовая глубина : 16 бит
Метод сжатия : С потерями
Задержка видео : -552 мс.
Размер потока : 33,9 Мбайт (3%)
Меню

DVDInfo

Title: Elements
Size: 4.02 Gb ( 4 210 218 KBytes ) - DVD-5
Enabled regions: 1, 2, 3, 4, 5, 6, 7, 8
VTS_01 :
Play Length: 00:00:40
Video: PAL 4:3 (720x576) VBR
VTS_02 :
Play Length: 01:36:30
Video: PAL 4:3 (720x576) VBR
Audio:
English (Dolby AC3, 2 ch)

Дополнительно

Бонусы: нет
Субтитры: нет

Скриншоты меню

 
Скриншоты:                  -Релиз-группа: by almikl ®-Все релизы Бархатный сезон на NNM-CLUB- Время раздачи: 24/7, до 10 скачавших
Вне форума [Профиль] [ЛС]
Показать сообщения:    
Ответить на тему

Текущее время: Сегодня 02:01

Часовой пояс: GMT + 3



Вы не можете начинать темы
Вы не можете отвечать на сообщения
Вы не можете редактировать свои сообщения
Вы не можете удалять свои сообщения
Вы не можете голосовать в опросах
Вы не можете прикреплять файлы к сообщениям
Вы не можете скачивать файлы