Сегодня идет свободное скачивание без начисления Download

Обратной дороги нет (1970) DVD9

Ответить на тему
 
Автор
Сообщение

Omen ®

Стаж: 5 лет 10 месяцев

Сообщений: 184329

Торрент-статистика

Пост 13-Янв-2013 10:18

[Цитировать]

-Обратной дороги нет (1970) DVD9- Русское название: Обратной дороги нет
Производство: Киностудия им. А.Довженко
Год выпуска: 1970
Жанр: Военный, Драма
Описание фильма:
Великая Отечественная война. После организованного побега из концлагеря (зная, что расстреляют каждого десятого из оставшихся) майор Топорков пробирается в партизанский отряд для организации доставки оружия бежавшим заключенным. Чтобы отвести внимание немецких поисковых групп от основного обоза, а самое главное, определить предателя, в партизанском отряде создается дополнительный обоз, который отправляется в путь, откуда обратной дороги нет.
Режиссер: Григорий Липшиц
Актеры: Николай Олялин, Александр Январев, Михаил Глузский, Алексей Чернов, Игорь Ясулович, Николай Мерзликин, Галина Польских, Лев Лемке, Валерий Малышев, Борис Юрченко, Владимир Олексеенко, Владимир Волков, Н.Гнепольская, Федор Ищенко, Лидия Комарецкая, И.Матвеев.
Продолжительность: 01:05:21 + 01:07:08 + 01:05:51

Видеокодек: MPEG-2
Битрейт видео: ~4948 Кбит/сек
Размер кадра: 720x576
Качество видео: DVD9
Аудиокодек: AC3 2.0, 5.1
Битрейт аудио:
Audio1 AC3 2.0 192 Кбит/сек - русский
Audio2 AC3 5.1 384 Кбит/сек - русский

DVDInfo:

Title: Обратной дороги нет 1970
Size: 7.86 Gb ( 8 237 540,00 KBytes ) - DVD-9
Enabled regions: 1, 2, 3, 4, 5, 6, 7, 8
VTS_01 :
Play Length: 00:00:28
Video: PAL 4:3 (720x576) VBR
Audio:
English (Dolby AC3, 2 ch)
VTS_02 :
Play Length: 01:05:21
Video: PAL 4:3 (720x576) VBR
Audio:
Russian (Dolby AC3, 2 ch)
Russian (Dolby AC3, 6 ch)
VTS_03 :
Play Length: 01:07:08
Video: PAL 4:3 (720x576) VBR
Audio:
Russian (Dolby AC3, 2 ch)
Russian (Dolby AC3, 6 ch)
VTS_04 :
Play Length: 01:05:51
Video: PAL 4:3 (720x576) VBR
Audio:
Scots Gaelic (Dolby AC3, 2 ch)
Russian (Dolby AC3, 6 ch)
* Menus Information *
VIDEO_TS Menu
Video:
PAL 4:3 (720x576) VBR
English Language Unit :
Title Menu
VTS_01 Menu
Video:
PAL 4:3 (720x576) VBR
Audio:
Not specified (Dolby AC3, 2 ch)
English Language Unit :
Root Menu
VTS_02 Menu
Video:
PAL 4:3 (720x576) VBR
English Language Unit :
Root Menu
VTS_03 Menu
Video:
PAL 4:3 (720x576) VBR
English Language Unit :
Root Menu
VTS_04 Menu
Video:
PAL 4:3 (720x576) VBR
English Language Unit :
Root Menu

MediaInfo:

Общее
Полное имя : G:\new 092012\!DVD\Обратной дороги нет\ориг\Обратной дороги нет 1970\VIDEO_TS\VTS_02_1.VOB
Формат : MPEG-PS
Размер файла : 1024 Мбайт
Продолжительность : 25 м.
Режим общего битрейта : Переменный
Общий поток : 5636 Кбит/сек
Видео
Идентификатор : 224 (0xE0)
Формат : MPEG Video
Версия формата : Version 2
Профиль формата : [email protected]
Параметр BVOP формата : Да
Параметр матрицы формата : По умолчанию
Параметр GOP формата : M=3, N=12
Продолжительность : 25 м.
Вид битрейта : Переменный
Битрейт : 4948 Кбит/сек
Максимальный битрейт : 8000 Кбит/сек
Ширина : 720 пикселей
Высота : 576 пикселей
Соотношение сторон : 4:3
Частота кадров : 25,000 кадров/сек
Стандарт вещания : PAL
Цветовое пространство : YUV
Субдискретизация насыщенности : 4:2:0
Битовая глубина : 8 бит
Тип развёртки : Чересстрочная
Порядок развёртки : Нижнее поле первое
Метод сжатия : С потерями
Бит/(Пиксели*Кадры) : 0.477
Размер потока : 899 Мбайт (88%)
Аудио #1
Идентификатор : 189 (0xBD)-128 (0x80)
Формат : AC-3
Формат/Информация : Audio Coding 3
Расширение режима : CM (complete main)
Параметр Endianness формата : Big
Режим смешивания : DVD-Video
Продолжительность : 25 м.
Вид битрейта : Постоянный
Битрейт : 192 Кбит/сек
Каналы : 2 канала
Расположение каналов : Front: L R
Частота : 48,0 КГц
Битовая глубина : 16 бит
Метод сжатия : С потерями
Задержка видео : -80 мс.
Размер потока : 34,9 Мбайт (3%)
Аудио #2
Идентификатор : 189 (0xBD)-129 (0x81)
Формат : AC-3
Формат/Информация : Audio Coding 3
Расширение режима : CM (complete main)
Параметр Endianness формата : Big
Режим смешивания : DVD-Video
Продолжительность : 25 м.
Вид битрейта : Постоянный
Битрейт : 384 Кбит/сек
Каналы : 6 каналов
Расположение каналов : Front: L C R, Side: L R, LFE
Частота : 48,0 КГц
Битовая глубина : 16 бит
Метод сжатия : С потерями
Задержка видео : -80 мс.
Размер потока : 69,8 Мбайт (7%)
Меню

MenuDVD:

     
Скриншоты:
         
         
Время раздачи: С 09:00 до 23:00
Все релизы Обратной дороги нет (1970) на nnm-club
Вне форума [Профиль] [ЛС]
Похожие темы
Форум Тема Автор Торрент Отв. Посл. сообщение
./templates/default/images/folder_dl.gif Фильмы Как добраться мне потом отсюда? ([2017 г., Amateur, Blowjob, Dogging, CamRip, 720p] (Любовники) XP1971
0 | 1

0 | 10606

47

2017-07-16 15:30
XP1971 Последнее
Показать сообщения:    
Ответить на тему

Текущее время: Сегодня 06:06

Часовой пояс: GMT + 3



Вы не можете начинать темы
Вы не можете отвечать на сообщения
Вы не можете редактировать свои сообщения
Вы не можете удалять свои сообщения
Вы не можете голосовать в опросах
Вы не можете прикреплять файлы к сообщениям
Вы не можете скачивать файлы