Сегодня идет свободное скачивание без начисления Download

Солдаты (1956) DVD5

Ответить на тему
 
Автор
Сообщение

Omen ®

Стаж: 5 лет 10 месяцев

Сообщений: 184329

Торрент-статистика

Пост 13-Янв-2013 10:18

[Цитировать]

-Солдаты (1956) DVD5- Русское название: Солдаты
Год выпуска: 1956
Жанр: Военный, Драма
Описание фильма:
Сталинградская битва глазами простых солдат. Они не имели права обсуждать приказы, даже если предвидели их катастрофические последствия. Они просто шли в бой, теряли друзей, влюблялись, мечтали о том, до чего многим не суждено было дожить… Июль 1942 года. Лейтенант Керженцев, его связной Валега и полковой разведчик Седых вместе с отступающими частями нашей армии идут мимо украинских деревень к Сталинграду, где уже формируются новые части…
Режиссер: Александр Иванов
Cценарий: Виктор Некрасов
Актеры: Иннокентий Смоктуновский, Всеволод Сафонов, Тамара Логинова, Николай Погодин, Леонид Кмит, Людмила Маркелия, Юрий Соловьев, Евгений Тетерин, Владислав Ковальков, Михаил Ладыгин, Борис Ильясов
Продолжительность: 01:40:06

Видеокодек: MPEG-2
Битрейт видео: ~5718 Кбит/сек
Размер кадра: 720x576
Качество видео: DVD5
Аудиокодек: AC3 2.0
Битрейт аудио: 192 Кбит/сек

Знаете ли вы, что:

В фильме состоялся дебют в кино Иннокентия Смоктуновского: он сыграл лейтенанта Фарбера. Эта роль стала в судьбе актера знаковой: фильм увидел режиссер Г.А.Товстоногов и пригласил Смоктуновского в БДТ на роль князя Мышкина в спектакле по роману Ф.М. Достоевского «Идиот». Свою первую роль в «Солдатах» сыграл и другой замечательный актер - Всеволод Сафонов. Сам Виктор Некрасов снялся в ленте в эпизодической роли пленного немца.

MediaInfo:

Общее
Полное имя : F:\1112\Солдаты (1956)\Солдаты (1956) DVD5\VIDEO_TS\VTS_02_1.VOB
Формат : MPEG-PS
Размер файла : 1024 Мбайт
Продолжительность : 23 м.
Режим общего битрейта : Переменный
Общий поток : 6030 Кбит/сек
Видео
Идентификатор : 224 (0xE0)
Формат : MPEG Video
Версия формата : Version 2
Профиль формата : [email protected]
Параметр BVOP формата : Да
Параметр матрицы формата : По умолчанию
Параметр GOP формата : M=3, N=12
Продолжительность : 23 м.
Вид битрейта : Переменный
Битрейт : 5718 Кбит/сек
Максимальный битрейт : 8000 Кбит/сек
Ширина : 720 пикселей
Высота : 576 пикселей
Соотношение сторон : 4:3
Частота кадров : 25,000 кадров/сек
Стандарт вещания : PAL
Цветовое пространство : YUV
Субдискретизация насыщенности : 4:2:0
Битовая глубина : 8 бит
Тип развёртки : Прогрессивная
Метод сжатия : С потерями
Бит/(Пиксели*Кадры) : 0.552
Размер потока : 971 Мбайт (95%)
Основные цвета : BT.601 PAL
Характеристики трансфера : BT.470 System B, BT.470 System G
Коэффициенты матрицы : BT.601
Аудио
Идентификатор : 189 (0xBD)-128 (0x80)
Формат : AC-3
Формат/Информация : Audio Coding 3
Расширение режима : CM (complete main)
Параметр Endianness формата : Big
Режим смешивания : DVD-Video
Продолжительность : 23 м.
Вид битрейта : Постоянный
Битрейт : 192 Кбит/сек
Каналы : 2 канала
Расположение каналов : Front: L R
Частота : 48,0 КГц
Битовая глубина : 16 бит
Метод сжатия : С потерями
Задержка видео : -80 мс.
Размер потока : 32,6 Мбайт (3%)
Меню

DVDInfo:

Title: Солдаты (1956) DVD5
Size: 4.04 Gb ( 4 239 064,00 KBytes ) - DVD-5
Enabled regions: 1, 2, 3, 4, 5, 6, 7, 8
VTS_01 :
Play Length: 00:00:24
Video: PAL 4:3 (720x576) VBR
Audio:
Russian (Dolby AC3, 2 ch)
VTS_02 :
Play Length: 01:40:06
Video: PAL 4:3 (720x576) VBR
Audio:
Russian (Dolby AC3, 2 ch)
* Menus Information *
VIDEO_TS Menu
Video:
NTSC 4:3 (720x480) VBR
Auto Pan&Scan, Auto Letterboxed
Russian Language Unit :
Title Menu
VTS_01 Menu
Video:
NTSC 4:3 (720x480) VBR
Auto Pan&Scan, Auto Letterboxed
Language Unit :
Chapter (PTT) Menu
VTS_02 Menu
Video:
PAL 4:3 (720x576) VBR
Audio:
Not specified (Dolby AC3, 2 ch)
Russian Language Unit :
Root Menu
Chapter (PTT) Menu

MenuDVD:

   
Скриншоты:
         
         
Все релизы Солдаты (1956) на nnm-club
Время раздачи: С 09:00 до 23:00
Вне форума [Профиль] [ЛС]
Показать сообщения:    
Ответить на тему

Текущее время: Сегодня 06:44

Часовой пояс: GMT + 3



Вы не можете начинать темы
Вы не можете отвечать на сообщения
Вы не можете редактировать свои сообщения
Вы не можете удалять свои сообщения
Вы не можете голосовать в опросах
Вы не можете прикреплять файлы к сообщениям
Вы не можете скачивать файлы