Сегодня идет свободное скачивание без начисления Download

Путёвка в жизнь (1931) DVD5

Ответить на тему
 
Автор
Сообщение

Omen ®

Стаж: 6 лет

Сообщений: 184329

Торрент-статистика

Пост 13-Янв-2013 10:18

[Цитировать]

-Путёвка в жизнь (1931) DVD5- Русское название: Путёвка в жизнь
Год выпуска: 1931
Жанр: Драма
Описание фильма:
Описание: 1923 год. В стране идёт борьба с голодом и разрухой. Десятки тысяч осиротевших, беспризорных детей скитаются по дорогам. Создается трудовая коммуна, в которой их должны собрать и перевоспитать… Руководитель коммуны Сергеев берётся за это нелёгкое дело…
Режиссер: Николай Экк
Актеры: Георгий Жжёнов,Рина Зеленая, Йыван Кырля (Кырла), Михаил Джагофаров, Александр Новиков, Николай Баталов, Мария Антропова, Михаил Жаров, Мария Гонта, Владимир Весновский, Регина Янушкевич, Николай Гладков, Владимир Уральский, Рина Зелёная, Виктор Лазарев, Николай Романов, Аубакир Исмаилов, Василий Качалов
Продолжительность: 01:46:28

Видеокодек: MPEG-2
Битрейт видео: ~4303 Кбит/сек
Размер кадра: 704x576
Качество видео: DVD5
Аудиокодек: AC3 2.0
Битрейт аудио:
Audio1 AC3 1 ch 128 Кбит/сек
Audio1 AC3 2.0 256 Кбит/сек

DVDInfo:

Title: Путёвка в жизнь DVD5
Size: 3.67 Gb ( 3 843 774,00 KBytes ) - DVD-5
Enabled regions: 1, 2, 3, 4, 5, 6, 7, 8
VTS_01 :
Play Length: 01:46:28
Video: PAL 4:3 (704x576) VBR
Audio:
Russian (Dolby AC3, 1 ch)
Russian (Dolby AC3, 2 ch)
* Menus Information *
VIDEO_TS Menu
Video:
PAL 4:3 (720x576) VBR
Audio:
Not specified (Dolby AC3, 2 ch)
English Language Unit :
Title Menu
VTS_01 Menu
Video:
PAL 4:3 (720x576) VBR
Audio:
Not specified (Dolby AC3, 2 ch)
English Language Unit :
Root Menu

MediaInfo:

Общее
Полное имя : F:\1112\Путёвка в жизнь DVD5\Путёвка в жизнь DVD5\VIDEO_TS\VTS_01_1.VOB
Формат : MPEG-PS
Размер файла : 1024 Мбайт
Продолжительность : 29 м.
Режим общего битрейта : Переменный
Общий поток : 4782 Кбит/сек
Видео
Идентификатор : 224 (0xE0)
Формат : MPEG Video
Версия формата : Version 2
Профиль формата : [email protected]
Параметр BVOP формата : Да
Параметр матрицы формата : Выборочная
Параметр GOP формата : M=3, N=12
Продолжительность : 29 м.
Вид битрейта : Переменный
Битрейт : 4303 Кбит/сек
Ширина : 704 пикселя
Высота : 576 пикселей
Соотношение сторон : 4:3
Частота кадров : 25,000 кадров/сек
Стандарт вещания : PAL
Цветовое пространство : YUV
Субдискретизация насыщенности : 4:2:0
Битовая глубина : 8 бит
Тип развёртки : Чересстрочная
Порядок развёртки : Верхнее поле первое
Метод сжатия : С потерями
Бит/(Пиксели*Кадры) : 0.424
Размер потока : 921 Мбайт (90%)
Основные цвета : BT.601 PAL
Характеристики трансфера : BT.470 System B, BT.470 System G
Коэффициенты матрицы : BT.601
Аудио #1
Идентификатор : 189 (0xBD)-128 (0x80)
Формат : AC-3
Формат/Информация : Audio Coding 3
Расширение режима : CM (complete main)
Параметр Endianness формата : Big
Режим смешивания : DVD-Video
Продолжительность : 29 м.
Вид битрейта : Постоянный
Битрейт : 128 Кбит/сек
Каналы : 1 канал
Расположение каналов : Front: C
Частота : 48,0 КГц
Битовая глубина : 16 бит
Метод сжатия : С потерями
Задержка видео : -80 мс.
Размер потока : 27,4 Мбайт (3%)
Аудио #2
Идентификатор : 189 (0xBD)-129 (0x81)
Формат : AC-3
Формат/Информация : Audio Coding 3
Расширение режима : CM (complete main)
Параметр Endianness формата : Big
Режим смешивания : DVD-Video
Продолжительность : 29 м.
Вид битрейта : Постоянный
Битрейт : 256 Кбит/сек
Каналы : 2 канала
Расположение каналов : Front: L R
Частота : 48,0 КГц
Битовая глубина : 16 бит
Метод сжатия : С потерями
Задержка видео : -80 мс.
Размер потока : 54,8 Мбайт (5%)
Меню

DVDMenu:

     
Скриншоты:
         
         

Рецензия, отзыв о фильме

Стихотворное посвящение в начале и конце фильма читает Василий Качалов.Первая работа в кино Рины Зелёной.Оригинальная версия картины. Первый советский звуковой фильм, получивший мировое признание: закуплен 26 странами. Режиссёр Н. Экк признан лучшим по опросу среди зрителей I МКФ в Венеции (1932 г.).
Время раздачи: С 09:00 до 23:00
Все релизы Путёвка в жизнь на nnm-club
Вне форума [Профиль] [ЛС]
Похожие темы
Форум Тема Автор Торрент Отв. Посл. сообщение
./templates/default/images/folder_dl.gif Психология, Тренинг, Саморазвитие Лайфхакер | 55 светлых идей по улучшению себя и своей жизни. Путеводитель по саморазвитию (2018) [FB2] }{@R0N
1 | 0

0 | 484

10

2018-10-08 18:26
}{@R0N Последнее
Показать сообщения:    
Ответить на тему

Текущее время: Сегодня 18:47

Часовой пояс: GMT + 3



Вы не можете начинать темы
Вы не можете отвечать на сообщения
Вы не можете редактировать свои сообщения
Вы не можете удалять свои сообщения
Вы не можете голосовать в опросах
Вы не можете прикреплять файлы к сообщениям
Вы не можете скачивать файлы