Today is a free download without charge Download

Повесть о настоящем человеке (1948) DVD5

Reply to topic
 
Author
Message

Omen ®

Longevity: 6 years 7 months

Posts: 181103

Торрент-статистика

Post 13-Jan-2013 10:18

[Quote]

-Повесть о настоящем человеке (1948) DVD5- Русское название: Повесть о настоящем человеке
Год выпуска: 1948
Жанр: Военный, Драма
Описание фильма:
Экранизация одноименной повести Бориса Полевого, основанной на реальных событиях.Летчик-истребитель Алексей Маресьев был сбит в бою, но выжил, потеряв обе ноги. Несмотря на ампутацию, он смог совершить практически невозможное: после упорных многодневных тренировок вновь поднял в небо боевой самолет.
Фильм, пользовавшийся огромной популярностью в первые послевоенные годы, и сегодня поражает силой эмоционального воздействия…
Режиссер: Александр Столпер
Актеры: Павел Кадочников, Николай Охлопков, Людмила Целиковская, Тамара Макарова, Василий Меркурьев, Лев Свердлин, Любовь Соколова
Продолжительность: 01:28:43

Видеокодек: MPEG-2
Битрейт видео: ~4781 Кбит/сек
Размер кадра: 720x576
Качество видео: DVD5
Аудиокодек: AC3 2.0
Битрейт аудио: 256 Кбит/сек

DVDInfo:

Title: Повесть о настоящем человеке (1948) DVD
Size: 3.30 Gb ( 3 458 000,00 KBytes ) - DVD-5
Enabled regions: 1, 2, 3, 4, 5, 6
VTS_01 :
Play Length: 00:00:35
Video: PAL 4:3 (720x576) VBR
Audio:
English (Dolby AC3, 2 ch)
VTS_02 :
Play Length: 01:28:43
Video: PAL 4:3 (720x576) VBR
Audio:
Russian (Dolby AC3, 2 ch)
* Menus Information *
VIDEO_TS Menu
Video:
PAL 4:3 (720x576) VBR
English Language Unit :
Title Menu
VTS_01 Menu
Video:
PAL 4:3 (720x576) VBR
English Language Unit :
Root Menu
VTS_02 Menu
Video:
PAL 4:3 (720x576) VBR
English Language Unit :
Root Menu
Chapter (PTT) Menu

MediaInfo:

Общее
Полное имя : G:\new 092012\!DVD\Повесть о настоящем человеке (1948) DVD\Повесть о настоящем человеке (1948) DVD\VIDEO_TS\VTS_02_1.VOB
Формат : MPEG-PS
Размер файла : 1024 Мбайт
Продолжительность : 27 м.
Режим общего битрейта : Переменный
Общий поток : 5139 Кбит/сек
Видео
Идентификатор : 224 (0xE0)
Формат : MPEG Video
Версия формата : Version 2
Профиль формата : [email protected]
Параметр BVOP формата : Да
Параметр матрицы формата : Выборочная
Параметр GOP формата : M=3, N=12
Продолжительность : 27 м.
Вид битрейта : Переменный
Битрейт : 4781 Кбит/сек
Максимальный битрейт : 7000 Кбит/сек
Ширина : 720 пикселей
Высота : 576 пикселей
Соотношение сторон : 4,741
Частота кадров : 25,000 кадров/сек
Стандарт вещания : PAL
Цветовое пространство : YUV
Субдискретизация насыщенности : 4:2:0
Битовая глубина : 8 бит
Тип развёртки : Чересстрочная
Порядок развёртки : Верхнее поле первое
Метод сжатия : С потерями
Бит/(Пиксели*Кадры) : 0.461
Размер потока : 952 Мбайт (93%)
Основные цвета : BT.601 PAL
Характеристики трансфера : BT.470 System B, BT.470 System G
Коэффициенты матрицы : BT.601
Аудио
Идентификатор : 189 (0xBD)-128 (0x80)
Формат : AC-3
Формат/Информация : Audio Coding 3
Расширение режима : CM (complete main)
Параметр Endianness формата : Big
Режим смешивания : DVD-Video
Продолжительность : 27 м.
Вид битрейта : Постоянный
Битрейт : 256 Кбит/сек
Каналы : 2 канала
Расположение каналов : Front: L R
Частота : 48,0 КГц
Битовая глубина : 16 бит
Метод сжатия : С потерями
Размер потока : 51,0 Мбайт (5%)
Меню

MenuDVD:

   
Скриншоты:
         
Время раздачи: C 09:00 до 23:00
Other forum [Profile] [PM]
Similar theme
Forum Topic Author Torrent Replies Last Post
./templates/default/images/folder_dl.gif Детская литература Астрид Линдгрен | Три повести о Малыше и Карлсоне (2014) [FB2] Anonymous
2 | 0

0 | 3026

12

2017-11-24 09:58
Anonymous Latest
Display posts from previous:    
Reply to topic

The time now is: Today 23:44

All times are GMT + 3 Hours



You cannot post new topics in this forum
You cannot reply to topics in this forum
You cannot edit your posts in this forum
You cannot delete your posts in this forum
You cannot vote in polls in this forum
You cannot attach files in this forum
You cannot download files in this forum