Сегодня идет свободное скачивание без начисления Download

Люди и звери (серия 2) (1962) DVD9

Ответить на тему
 
Автор
Сообщение

Omen ®

Стаж: 6 лет

Сообщений: 184329

Торрент-статистика

Пост 13-Янв-2013 10:18

[Цитировать]

-Люди и звери (серия 2) (1962) DVD9- Русское название: Люди и звери (серия 2)
Год выпуска: 1962
Жанр: Драма, Военный
[url=/forum/viewtopic.php?t=582542]Cерия 1[/url]
Описание фильма:
История советского офицера Алексея Павлова, перенесшего немецкий концлагерь, сахарные плантации в Мексике и нищенскую жизнь в Германии. Во времена хрущевскойоттепели он возвращается на Родину. Поскитавшись по чужбине, Алексей вернулся на родину и, не найдя сочувствия и понимания у близких, затравленных страхом засвои судьбы, поехал в Запорожье, где случайные попутчицы Анна Андреевна и ее дочь Таня стали первыми, кому Алексей Павлов, поведал о своих мытарствах…
Режиссер: Сергей Герасимов
Актеры: Тамара Макарова, Николай Еременко (старший), Жанна Болотова, Михаил Глузский, Сергей Никоненко, Станислав Бородокин
Продолжительность: 01:44:06

Видеокодек: MPEG-2
Битрейт видео: ~6047 Кбит/сек
Размер кадра: 720x576
Качество видео: DVD9
Аудиокодек: AC3 5.1
Битрейт аудио:
Audio1 AC3 5.1, 448 Кбит/сек
Audio2 AC3 1ch, 112 Кбит/сек
Субтитры: русские, английские
Полная реставрация изображения и звука
Дополнительные материалы: Интервью с актером Сергеем Никоненко, фильмографии, смотрите на DVD

DVDInfo:

Title: Люди и звери (2 серия) (1962) DVD9
Size: 5.81 Gb ( 6 088 154,00 KBytes ) - DVD-9
Enabled regions: 1, 2, 3, 4, 5, 6, 7, 8
VTS_01 :
Play Length: 00:00:25
Video: PAL 4:3 (720x576) VBR
VTS_02 :
Play Length: 00:00:21
Video: PAL 4:3 (720x576) VBR
Audio:
Russian (Dolby AC3, 6 ch)
VTS_03 :
Play Length: 00:00:52
Video: PAL 4:3 (720x576) VBR
Audio:
Russian (Dolby AC3, 6 ch)
VTS_04 :
Play Length: 01:44:06
Video: PAL 4:3 (720x576) VBR
Audio:
Russian (Dolby AC3, 6 ch)
Russian (Dolby AC3, 1 ch)
Subtitles:
Russian
English
VTS_05 :
Play Length: 00:06:45
Video: PAL 4:3 (720x576) VBR
Audio:
Russian (Dolby AC3, 2 ch)
Subtitles:
Russian
English
VTS_06 :
Play Length: 00:03:15
Video: PAL 4:3 (720x576) VBR
Audio:
Russian (Dolby AC3, 2 ch)
Subtitles:
Russian
English
VTS_07 :
Play Length: 00:02:12
Video: PAL 4:3 (720x576) VBR
Audio:
Russian (Dolby AC3, 2 ch)
Subtitles:
Russian
English
VTS_08 :
Play Length: 00:01:41
Video: PAL 4:3 (720x576) VBR
Audio:
Russian (Dolby AC3, 1 ch)
Subtitles:
Russian
English
* Menus Information *
VIDEO_TS Menu
Video:
PAL 4:3 (720x576) VBR
English Language Unit :
Title Menu
VTS_01 Menu
Video:
PAL 4:3 (720x576) VBR
Audio:
Not specified (Dolby AC3, 6 ch)
English Language Unit :
Root Menu
VTS_02 Menu
Video:
PAL 4:3 (720x576) VBR
English Language Unit :
Root Menu
VTS_03 Menu
Video:
PAL 4:3 (720x576) VBR
English Language Unit :
Root Menu
VTS_04 Menu
Video:
PAL 4:3 (720x576) VBR
English Language Unit :
Root Menu
VTS_05 Menu
Video:
PAL 4:3 (720x576) VBR
English Language Unit :
Root Menu
VTS_06 Menu
Video:
PAL 4:3 (720x576) VBR
English Language Unit :
Root Menu
VTS_07 Menu
Video:
PAL 4:3 (720x576) VBR
English Language Unit :
Root Menu
VTS_08 Menu
Video:
PAL 4:3 (720x576) VBR
English Language Unit :
Root Menu

MediaInfo:

Общее
Полное имя : G:\new 092012\!DVD\Люди и звери (2 серии) (1962) DVD9\Люди и звери (2 серия) (1962) DVD9\VIDEO_TS\VTS_04_1.VOB
Формат : MPEG-PS
Размер файла : 1024 Мбайт
Продолжительность : 21 м.
Режим общего битрейта : Переменный
Общий поток : 6758 Кбит/сек
Видео
Идентификатор : 224 (0xE0)
Формат : MPEG Video
Версия формата : Version 2
Профиль формата : [email protected]
Параметр BVOP формата : Да
Параметр матрицы формата : Выборочная
Параметр GOP формата : M=3, N=9
Продолжительность : 21 м.
Вид битрейта : Переменный
Битрейт : 6047 Кбит/сек
Максимальный битрейт : 8000 Кбит/сек
Ширина : 720 пикселей
Высота : 576 пикселей
Соотношение сторон : 4:3
Частота кадров : 25,000 кадров/сек
Стандарт вещания : PAL
Цветовое пространство : YUV
Субдискретизация насыщенности : 4:2:0
Битовая глубина : 8 бит
Тип развёртки : Чересстрочная
Порядок развёртки : Верхнее поле первое
Метод сжатия : С потерями
Бит/(Пиксели*Кадры) : 0.583
Размер потока : 916 Мбайт (89%)
Аудио #1
Идентификатор : 189 (0xBD)-128 (0x80)
Формат : AC-3
Формат/Информация : Audio Coding 3
Расширение режима : CM (complete main)
Параметр Endianness формата : Big
Режим смешивания : DVD-Video
Продолжительность : 21 м.
Вид битрейта : Постоянный
Битрейт : 448 Кбит/сек
Каналы : 6 каналов
Расположение каналов : Front: L C R, Side: L R, LFE
Частота : 48,0 КГц
Битовая глубина : 16 бит
Метод сжатия : С потерями
Размер потока : 67,9 Мбайт (7%)
Аудио #2
Идентификатор : 189 (0xBD)-129 (0x81)
Формат : AC-3
Формат/Информация : Audio Coding 3
Расширение режима : CM (complete main)
Параметр Endianness формата : Big
Режим смешивания : DVD-Video
Продолжительность : 21 м.
Вид битрейта : Постоянный
Битрейт : 128 Кбит/сек
Каналы : 1 канал
Расположение каналов : Front: C
Частота : 48,0 КГц
Битовая глубина : 16 бит
Метод сжатия : С потерями
Размер потока : 19,4 Мбайт (2%)
Текст #1
Идентификатор : 189 (0xBD)-32 (0x20)
Формат : RLE
Формат/Информация : Run-length encoding
Режим смешивания : DVD-Video
Продолжительность : 21 м.
Задержка видео : 320 мс.
Текст #2
Идентификатор : 189 (0xBD)-33 (0x21)
Формат : RLE
Формат/Информация : Run-length encoding
Режим смешивания : DVD-Video
Продолжительность : 21 м.
Задержка видео : 320 мс.
Меню

MenuDVD:

         
     
Скриншоты:
         
         
Время раздачи: С 09:00 до 23:00
Вне форума [Профиль] [ЛС]
Показать сообщения:    
Ответить на тему

Текущее время: Сегодня 15:48

Часовой пояс: GMT + 3



Вы не можете начинать темы
Вы не можете отвечать на сообщения
Вы не можете редактировать свои сообщения
Вы не можете удалять свои сообщения
Вы не можете голосовать в опросах
Вы не можете прикреплять файлы к сообщениям
Вы не можете скачивать файлы