Сегодня идет свободное скачивание без начисления Download

Мичман Панин (1960) DVD5

Ответить на тему
 
Автор
Сообщение

Omen ®

Стаж: 6 лет

Сообщений: 184329

Торрент-статистика

Пост 13-Янв-2013 10:18

[Цитировать]

-Мичман Панин (1960) DVD5- Русское название: Мичман Панин
Год выпуска: 1960
Жанр: Военный, Драма
Описание фильма:
Только что произведенный в мичманы член подпольной организации Василий Панин участвует в спасении группы политзаключенных. Военный корабль, на который Панин получил назначение, уходит в загранплавание, а на борту у него — тринадцать беглецов. В любую минуту они могут быть обнаружены…
Режиссер: Михаил Швейцер
Актеры: Вячеслав Тихонов, Олег Голубицкий, Герман Качин, Леонид Кмит, Леонид Куравлёв, Николай Пажитнов, Иван Переверзев, Никита Подгорный, Владимир Покровский, Лев Поляков, Николай Сергеев
Продолжительность: 01:30:25

Видеокодек: MPEG-2
Битрейт видео: ~5600 Кбит/сек
Размер кадра: 720x576
Качество видео: DVD5
Аудиокодек: AC3 2.0
Битрейт аудио: 192 Кбит/сек
Субтиры: нет
Дополнительные материалы: " Мосфильм ": вчера и сегодня

DVDInfo:

Title: Мичман_Панин
Size: 4.18 Gb ( 4 379 554,00 KBytes ) - DVD-5
Enabled regions: 1, 2, 3, 4, 5, 6, 7, 8
VTS_01 :
Play Length: 00:00:28
Video: PAL 4:3 (720x576) VBR
VTS_02 :
Play Length: 00:07:49+{00:07:49}+{00:07:49}
Video: PAL 16:9 (720x576) VBR, Auto Letterboxed
Audio:
Russian (Dolby AC3, 2 ch)
VTS_03 :
Play Length: 01:30:25+{01:30:25}+{01:30:25}
Video: PAL 4:3 (720x576) VBR
Audio:
Russian (Dolby AC3, 2 ch)
* Menus Information *
VIDEO_TS Menu
Video:
PAL 4:3 (720x576) VBR
English Language Unit :
Title Menu
VTS_01 Menu
Video:
PAL 4:3 (720x576) VBR
Audio:
Not specified (Dolby AC3, 2 ch)
English Language Unit :
Root Menu
VTS_02 Menu
Video:
PAL 4:3 (720x576) VBR
English Language Unit :
Root Menu
VTS_03 Menu
Video:
PAL 4:3 (720x576) VBR
English Language Unit :
Root Menu

MediaInfo:

Общее
Полное имя : G:\new 092012\!DVD\Мичман Панин\Мичман_Панин\VIDEO_TS\VTS_03_1.VOB
Формат : MPEG-PS
Размер файла : 1024 Мбайт
Продолжительность : 24 м.
Общий поток : 5901 Кбит/сек
Видео
Идентификатор : 224 (0xE0)
Формат : MPEG Video
Версия формата : Version 2
Профиль формата : [email protected]
Параметр BVOP формата : Да
Параметр матрицы формата : Выборочная
Параметр GOP формата : Variable
Продолжительность : 24 м.
Битрейт : 5600 Кбит/сек
Ширина : 720 пикселей
Высота : 576 пикселей
Соотношение сторон : 4:3
Частота кадров : 25,000 кадров/сек
Стандарт вещания : PAL
Цветовое пространство : YUV
Субдискретизация насыщенности : 4:2:0
Битовая глубина : 8 бит
Тип развёртки : Чересстрочная
Порядок развёртки : Нижнее поле первое
Метод сжатия : С потерями
Бит/(Пиксели*Кадры) : 0.540
Размер потока : 970 Мбайт (95%)
Аудио
Идентификатор : 189 (0xBD)-128 (0x80)
Формат : AC-3
Формат/Информация : Audio Coding 3
Расширение режима : CM (complete main)
Параметр Endianness формата : Big
Режим смешивания : DVD-Video
Продолжительность : 24 м.
Вид битрейта : Постоянный
Битрейт : 192 Кбит/сек
Каналы : 2 канала
Расположение каналов : Front: L R
Частота : 48,0 КГц
Битовая глубина : 16 бит
Метод сжатия : С потерями
Размер потока : 33,3 Мбайт (3%)
Меню

DVDMenu:

     
Скриншоты:
         
         
Время раздачи: С 09:00 до 23:00
Все релизы Мичман Панин на NNM-CLUB
Вне форума [Профиль] [ЛС]
Показать сообщения:    
Ответить на тему

Текущее время: Сегодня 23:16

Часовой пояс: GMT + 3



Вы не можете начинать темы
Вы не можете отвечать на сообщения
Вы не можете редактировать свои сообщения
Вы не можете удалять свои сообщения
Вы не можете голосовать в опросах
Вы не можете прикреплять файлы к сообщениям
Вы не можете скачивать файлы