Сегодня идет свободное скачивание без начисления Download

Майские звезды (1959) DVD5

Ответить на тему
 
Автор
Сообщение

Omen ®

Стаж: 5 лет 10 месяцев

Сообщений: 184329

Торрент-статистика

Пост 13-Янв-2013 10:18

[Цитировать]

-Майские звезды (1959) DVD5- Русское название: Майские звезды
Год выпуска: 1959
Жанр: Военный, Драма
Описание фильма:
Май 1945 года. В предместьях Праги простые люди встречают советских солдат-освободителей со слезами радости на глазах. В первые дни затишья кто-то с грустью вспоминает о довоенной жизни; кто-то нежданно встречает свою любовь; кто-то возвращается из вражеских застенков, с надеждой смотря в будущее; а кто-то, пересев из танка в чешский трамвайчик, с теплотой вспоминает свое ремесло вагоновожатого... В эти дни все, кто выжил в пожаре Великой Войны, дают клятву вечно хранить мир на Земле, чтя память тех, кто отдал свою жизнь за простое человеческое счастье.
Режиссер: Станислав Ростоцкий
Актеры: Вячеслав Тихонов, Михаил Пуговкин, Леонид Быков, Николай Крючков, Александр Ханов, Зденек Дите, Юрий Белов
Продолжительность: 01:27:42

Видеокодек: MPEG-2
Битрейт видео: ~7124 Кбит/сек
Размер кадра: 720x576
Качество видео: DVD5
Аудиокодек: AC3 5.1
Битрейт аудио: 384 Кбит/сек

DVDInfo:

Title: Майские звёзды DVD5
Size: 4.28 Gb ( 4 487 894,00 KBytes ) - DVD-5
Enabled regions: 1, 2, 3, 4, 5, 6, 7, 8
VTS_01 :
Play Length: 01:27:42
Video: PAL 4:3 (720x576) VBR
Audio:
English (Dolby AC3, 6 ch)
* Menus Information *
VIDEO_TS Menu
Video:
PAL 4:3 (720x576) VBR
Audio:
Not specified (Dolby AC3, 2 ch)
Language Unit :
VTS_01 Menu
Video:
PAL 4:3 (720x576) VBR
Language Unit :
Root Menu

MediaInfo:

Общее
Полное имя : G:\new 092012\!DVD\Майские звёзды (1959)\Майские звёзды DVD5\VIDEO_TS\VTS_01_1.VOB
Формат : MPEG-PS
Размер файла : 1024 Мбайт
Продолжительность : 18 м.
Режим общего битрейта : Переменный
Общий поток : 7661 Кбит/сек
Библиотека кодирования : (c) 1998-2012 Womble Multimedia, Inc. / MPEG Video Wizard DVD 5.0.1.100 (03/2011) / Aug 9 2012
Видео
Идентификатор : 224 (0xE0)
Формат : MPEG Video
Версия формата : Version 2
Профиль формата : [email protected]
Параметр BVOP формата : Да
Параметр матрицы формата : Выборочная
Параметр GOP формата : M=3, N=15
Продолжительность : 18 м.
Вид битрейта : Переменный
Битрейт : 7124 Кбит/сек
Максимальный битрейт : 9000 Кбит/сек
Ширина : 720 пикселей
Высота : 576 пикселей
Соотношение сторон : 4:3
Частота кадров : 25,000 кадров/сек
Стандарт вещания : PAL
Цветовое пространство : YUV
Субдискретизация насыщенности : 4:2:0
Битовая глубина : 8 бит
Тип развёртки : Чересстрочная
Порядок развёртки : Верхнее поле первое
Метод сжатия : С потерями
Бит/(Пиксели*Кадры) : 0.687
Размер потока : 952 Мбайт (93%)
Выравнивание : (c) 1998-2012 Womble Multimedia, Inc. / MPEG Video Wizard DVD 5.0.1.100 (03/2011) / Aug 9 2012
Заголовок : (c) 1998-2012 Womble Multimedia, Inc. / MPEG Video Wizard DVD 5.0.1.100 (03/2011) / Aug 9 2012
Библиотека кодирования : (c) 1998-2012 Womble Multimedia, Inc. / MPEG Video Wizard DVD 5.0.1.100 (03/2011) / Aug 9 2012
Аудио
Идентификатор : 189 (0xBD)-128 (0x80)
Формат : AC-3
Формат/Информация : Audio Coding 3
Расширение режима : CM (complete main)
Параметр Endianness формата : Big
Режим смешивания : DVD-Video
Продолжительность : 18 м.
Вид битрейта : Постоянный
Битрейт : 384 Кбит/сек
Каналы : 6 каналов
Расположение каналов : Front: L C R, Side: L R, LFE
Частота : 48,0 КГц
Битовая глубина : 16 бит
Метод сжатия : С потерями
Размер потока : 51,3 Мбайт (5%)
Меню

DVDMenu:

 
Скриншоты:
         
         
Время раздачи: С 09:00 до 23:00
Все релизы Майские звезды на nnm-club
Вне форума [Профиль] [ЛС]
Показать сообщения:    
Ответить на тему

Текущее время: Сегодня 04:06

Часовой пояс: GMT + 3



Вы не можете начинать темы
Вы не можете отвечать на сообщения
Вы не можете редактировать свои сообщения
Вы не можете удалять свои сообщения
Вы не можете голосовать в опросах
Вы не можете прикреплять файлы к сообщениям
Вы не можете скачивать файлы