Сегодня идет свободное скачивание без начисления Download

Под куполом цирка (2 серии из 2) (1989) DVD5

Ответить на тему
 
Автор
Сообщение

Omen ®

Стаж: 6 лет

Сообщений: 184329

Торрент-статистика

Пост 13-Янв-2013 10:17

[Цитировать]

-Под куполом цирка (2 серии из 2) (1989) DVD5- Русское название: Под куполом цирка
Год выпуска: 1989
Производство: СССР, Творческое Объединение "Экран"
Жанр: Комедия
Режиссер: Владимир Семаков
Сценарий: Яков Зискинд
Актеры: Александр Баринов, Михаил Пуговкин, Александр Кулямин, Ирина Феофанова, Софья Горшкова, Геннадий Фролов, Александр Михайлушкин, Алла Мещерякова, Галина Самойлова-Ледогорова, Валерий Яременко, Лаврентий Ахба, Марина Миронова
Описание фильма:Телевизионный фильм о выпускниках циркового училища по мотивам оперетты Исаака Дунаевского «Сын клоуна».
Любящие друг друга молодые цирковые артисты Ирина и Максим никак не могут соединиться из-за пресловутого «треугольника», который, как выясняется, оказался мнимым
-
Дата выхода DVD релиза: 22 января 2009, «Азимут»
Возраст: Для любой зрительской аудитории-Продолжительность: 02:11:11
Качество видео: DVD5
Видеокодек: MPEG2
Битрейт видео: ~ 4564 Кбит/сек
Размер кадра: 720x576
Аудио : Русский, AC3, 2 ch, 192 Кбит/сек
Доп. материалы на диске: Отсутствуют

Скриншоты меню

       

DVDInfo

Код:
Title: Под куполом цирка (2 серии из 2) (1989) DVD5
Size: 4.23 Gb ( 4 431 096,00 KBytes ) - DVD-5
Enabled regions: 1, 2, 3, 4, 5, 6, 7, 8
VTS_01 :
  Play Length: 00:00:28+02:11:11+{00:00:00}
  Video: PAL 4:3 (720x576) VBR
  Audio:
      Russian (Dolby AC3, 2 ch)
* Menus Information *
VIDEO_TS Menu
Video:
      PAL 4:3 (720x576) VBR
Audio:
      Not specified (Dolby AC3, 2 ch)
Russian Language Unit :
      Title Menu
VTS_01 Menu
Video:
      PAL 4:3 (720x576) VBR
Audio:
      Not specified (Dolby AC3, 2 ch)
Russian Language Unit :
      Root Menu

MediaInfo

Код:
Общее
Полное имя                               : E:\Раздачи\Под куполом цирка (2 серии из 2) (1989) DVD5\VIDEO_TS\VTS_01_2.VOB
Формат                                   : MPEG-PS
Размер файла                             : 1024 Мбайт
Продолжительность                        : 31 м.
Общий поток                              : 4495 Кбит/сек
Видео
Идентификатор                            : 224 (0xE0)
Формат                                   : MPEG Video
Версия формата                           : Version 2
Профиль формата                          : [email protected]
Параметр BVOP формата                    : Да
Параметр матрицы формата                 : Выборочная
Параметр GOP формата                     : M=3, N=12
Продолжительность                        : 31 м.
Битрейт                                  : 4200 Кбит/сек
Ширина                                   : 720 пикселей
Высота                                   : 576 пикселей
Соотношение сторон                       : 4:3
Частота кадров                           : 25,000 кадров/сек
Стандарт вещания                         : PAL
Цветовое пространство                    : YUV
Субдискретизация насыщенности            : 4:2:0
Битовая глубина                          : 8 бит
Тип развёртки                            : Чересстрочная
Порядок развёртки                        : Нижнее поле первое
Метод сжатия                             : С потерями
Бит/(Пиксели*Кадры)                      : 0.405
Размер потока                            : 960 Мбайт (94%)
Аудио
Идентификатор                            : 189 (0xBD)-128 (0x80)
Формат                                   : AC-3
Формат/Информация                        : Audio Coding 3
Расширение режима                        : CM (complete main)
Параметр Endianness формата              : Big
Режим смешивания                         : DVD-Video
Продолжительность                        : 31 м.
Вид битрейта                             : Постоянный
Битрейт                                  : 192 Кбит/сек
Каналы                                   : 2 канала
Расположение каналов                     : Front: L R
Частота                                  : 48,0 КГц
Битовая глубина                          : 16 бит
Метод сжатия                             : С потерями
Задержка видео                           : -272 мс.
Размер потока                            : 43,7 Мбайт (4%)
Меню
Скриншоты:
         
         -Время раздачи: 9.00 - 23.00 (по мере возможности...)
Вне форума [Профиль] [ЛС]
Показать сообщения:    
Ответить на тему

Текущее время: Сегодня 19:46

Часовой пояс: GMT + 3



Вы не можете начинать темы
Вы не можете отвечать на сообщения
Вы не можете редактировать свои сообщения
Вы не можете удалять свои сообщения
Вы не можете голосовать в опросах
Вы не можете прикреплять файлы к сообщениям
Вы не можете скачивать файлы