Сегодня идет свободное скачивание без начисления Download

Сломанная подкова (1973) DVD5

Ответить на тему
 
Автор
Сообщение

Omen ®

Стаж: 5 лет 10 месяцев

Сообщений: 184329

Торрент-статистика

Пост 13-Янв-2013 10:17

[Цитировать]

-Сломанная подкова (1973) DVD5- Русское название: Сломанная подкова
Год выпуска: 1973
Жанр: Боевик, криминал, детектив, приключения
Производство: СССР
Описание фильма:
Французский аэронавт Жюль Ардан, путешествуя на воздушном шаре, случайно оказывается в Ревеле. Здесь он знакомится с доктором Петерсоном и его дочерью Лейдой.
За женихом Лейды охотятся жандармы. В городе происходит убийство сына банкира. Подозрение падает на Петерсона. За расследование преступления берется Жюль Ардан.
Режиссер: Семен Аранович
Актеры: Сергей Юрский, Марина Неелова, Владимир Разумовский, Витаутас Паукште, Бронюс Бабкаускас, Янис Тооминг, Станислав Соколов, Валентинс Скулме, Лембит Ээльмяэ, Антс Эскола, Владимир Татосов, Лев Лемке, Анатолий Васильев
Продолжительность: 01:15:18

Видеокодек: MPEG-2
Битрейт видео: ~5490 kbps
Размер кадра: 720х[email protected]х576
Качество видео: DVD5 R5
Аудио: (Dolby AC3, 5 ch) 384 kbps Русский
Доп.материалы: Создатели, и исполнители, смотрите на DVD

DVDInfo

Title: Slomannaj.podkova.1973.nnm.DVD5
Size: 3.21 Gb ( 3 368 192,00 KBytes ) - DVD-5
Enabled regions: 1, 2, 3, 4, 5, 6, 7, 8
VTS_01 :
Play Length: 01:15:18
Video: PAL 4:3 (704x576) VBR
Audio:
Russian (Dolby AC3, 5 ch)
VTS_02 :
Play Length: 00:00:01+00:00:01+00:00:01+00:00:01+00:00:00+00:00:01+00:00:01+00:00:00
Video: PAL 4:3 (720x576) VBR
Subtitles:
English
VTS_03 :
Play Length: 00:00:02
Video: PAL 4:3 (720x576) VBR
Subtitles:
English

MediaInfo

Общее
Полное имя : K:\Up\кино\Сломанная подкова\Slomannaj.podkova.1973.nnm.DVD5\VIDEO_TS\VTS_01_2.VOB
Формат : MPEG-PS
Размер файла : 1024 Мбайт
Продолжительность : 23 м.
Общий поток : 5993 Кбит/сек
Видео
Идентификатор : 224 (0xE0)
Формат : MPEG Video
Версия формата : Version 2
Профиль формата : [email protected]
Параметр BVOP формата : Да
Параметр матрицы формата : По умолчанию
Параметр GOP формата : M=3, N=15
Продолжительность : 23 м.
Битрейт : 5490 Кбит/сек
Максимальный битрейт : 5500 Кбит/сек
Ширина : 704 пикселя
Высота : 576 пикселей
Соотношение сторон : 4:3
Частота кадров : 25,000 кадров/сек
Стандарт вещания : PAL
Цветовое пространство : YUV
Субдискретизация насыщенности : 4:2:0
Битовая глубина : 8 бит
Тип развёртки : Чересстрочная
Порядок развёртки : Верхнее поле первое
Метод сжатия : С потерями
Бит/(Пиксели*Кадры) : 0.542
Размер потока : 938 Мбайт (92%)
Аудио
Идентификатор : 189 (0xBD)-128 (0x80)
Формат : AC-3
Формат/Информация : Audio Coding 3
Расширение режима : CM (complete main)
Режим смешивания : DVD-Video
Продолжительность : 23 м.
Вид битрейта : Постоянный
Битрейт : 384 Кбит/сек
Каналы : 5 каналов
Расположение каналов : Front: L C R, Side: L R
Частота : 48,0 КГц
Битовая глубина : 16 бит
Метод сжатия : С потерями
Задержка видео : -264 мс.
Размер потока : 65,6 Мбайт (6%)
Меню

Скриншоты меню

     
Скриншоты:      
     
Время раздачи: С 09:00 до 24:00 мск-Все релизы Сломанная подкова на NNM-CLUB-
Вне форума [Профиль] [ЛС]
Показать сообщения:    
Ответить на тему

Текущее время: Сегодня 03:59

Часовой пояс: GMT + 3



Вы не можете начинать темы
Вы не можете отвечать на сообщения
Вы не можете редактировать свои сообщения
Вы не можете удалять свои сообщения
Вы не можете голосовать в опросах
Вы не можете прикреплять файлы к сообщениям
Вы не можете скачивать файлы