Сегодня идет свободное скачивание без начисления Download

Горожане (1975) DVD5

Ответить на тему
 
Автор
Сообщение

Omen ®

Стаж: 5 лет 10 месяцев

Сообщений: 184329

Торрент-статистика

Пост 13-Янв-2013 10:17

[Цитировать]

-Горожане (1975) DVD5- Русское название: Горожане
Год выпуска: 1975
Жанр: Драма
Производство: СССР, Киностудия им. М.Горького
Описание фильма:
Герой фильма — обычный водитель московского такси, добрый и порядочный человек. Каждый новый рабочий день сулит ему новые встречи, знакомства — иногда радостные и приятные, а порой и требующие от него суровой решительности и отваги.
Режиссер: Владимир Роговой
Актеры: Николай Крючков, Виктор Чеботарев, Марина Дюжева, Борис Чирков, Георгий Юматов, Олег Даль, Людмила Хитяева, Анатолий Ромашин, Валерий Носик, Лариса Удовиченко, Борис Гусаков, Валентин Никулин, Леонид Ярмольник, Игорь Скляр, Алексей Миронов, Юрий Чернов...
Продолжительность: 01:21:40

Видеокодек: MPEG-2
Битрейт видео: ~7118 kbps
Размер кадра: 720х[email protected]х576
Качество видео: DVD5 R5
Аудио: (Dolby AC3 2.0) 192 kbps Русский
Доп.материалы: Каталог

DVDInfo

Title: Gorozhane.1975.nnm.DVD5
Size: 4.35 Gb ( 4 561 570,00 KBytes ) - DVD-5
Enabled regions: 1, 2, 3, 4, 5, 6, 7, 8
VTS_01 :
Play Length: 01:21:40
Video: PAL 4:3 (720x576) VBR
Audio:
Russian (Dolby AC3, 2 ch)

MediaInfo

Общее
Полное имя : K:\Up\кино\Горожане\Gorozhane.1975.nnm.DVD5\VIDEO_TS\VTS_01_2.VOB
Формат : MPEG-PS
Размер файла : 1024 Мбайт
Продолжительность : 19 м.
Режим общего битрейта : Переменный
Общий поток : 7459 Кбит/сек
Видео
Идентификатор : 224 (0xE0)
Формат : MPEG Video
Версия формата : Version 2
Профиль формата : [email protected]
Параметр BVOP формата : Да
Параметр матрицы формата : Выборочная
Параметр GOP формата : M=3, N=15
Продолжительность : 19 м.
Вид битрейта : Переменный
Битрейт : 7118 Кбит/сек
Максимальный битрейт : 9000 Кбит/сек
Ширина : 720 пикселей
Высота : 576 пикселей
Соотношение сторон : 4:3
Частота кадров : 25,000 кадров/сек
Стандарт вещания : PAL
Цветовое пространство : YUV
Субдискретизация насыщенности : 4:2:0
Битовая глубина : 8 бит
Тип развёртки : Чересстрочная
Порядок развёртки : Верхнее поле первое
Метод сжатия : С потерями
Бит/(Пиксели*Кадры) : 0.687
Размер потока : 977 Мбайт (95%)
Аудио
Идентификатор : 189 (0xBD)-128 (0x80)
Формат : AC-3
Формат/Информация : Audio Coding 3
Расширение режима : CM (complete main)
Режим смешивания : DVD-Video
Продолжительность : 19 м.
Вид битрейта : Постоянный
Битрейт : 192 Кбит/сек
Каналы : 2 канала
Расположение каналов : Front: L R
Частота : 48,0 КГц
Битовая глубина : 16 бит
Метод сжатия : С потерями
Задержка видео : -584 мс.
Размер потока : 26,4 Мбайт (3%)
Меню

Скриншоты меню

     
Скриншоты:        
     

Обложка,диск

   
Время раздачи: С 09:00 до 24:00 мск-Все релизы Горожане на NNM-CLUB-
Вне форума [Профиль] [ЛС]
Показать сообщения:    
Ответить на тему

Текущее время: Сегодня 20:17

Часовой пояс: GMT + 3



Вы не можете начинать темы
Вы не можете отвечать на сообщения
Вы не можете редактировать свои сообщения
Вы не можете удалять свои сообщения
Вы не можете голосовать в опросах
Вы не можете прикреплять файлы к сообщениям
Вы не можете скачивать файлы