Today is a free download without charge Download

Комедия давно минувших дней (1980) DVD5

Reply to topic
 
Author
Message

Omen ®

Longevity: 6 years 5 months

Posts: 171875

Торрент-статистика

Post 13-Jan-2013 10:17

[Quote]

-Комедия давно минувших дней (1980) DVD5- Русское название: Комедия давно минувших дней
Год выпуска: 1980
Жанр: Комедия
Производство: СССР, Мосфильм
Описание фильма:
Приключения известных комедийных персонажей Бывалого и Труса, а также Остапа Бендера и Кисы Воробьянинова. На сей раз, они узнают о кладе в миллион золотых, спрятанном в неизвестном приморском городке, в доме, запечатленном в одной из комедий немого кино. Получив фотографию дома, жулики отправились на поиски… в киноархив.
Режиссер: Юрий Кушнерев
Актеры: Арчил Гомиашвили, Сергей Филиппов, Евгений Моргунов, Георгий Вицин, Анатолий Веденкин, Владимир Грамматиков, Георгий Георгиу, Валерий Косенков, Алексей Коняшин, Елизавета Никищихина, Владимир Пожидаев, Ян Янакиев, Герман Качин, Николай Крючков, Анатолий Кторов, Федор Курихин, Марина Ладынина, Вероника Лебедева, Вера Марецкая, Сергей Мартинсон, Ева Милютина...
Продолжительность: 01:20:02

Видеокодек: MPEG-2
Битрейт видео: ~6386 kbps
Размер кадра: 720х[email protected]х576
Качество видео: DVD5 R5
Аудио: (Dolby AC3 2.0) 192 kbps Русский
Доп.материалы: Мосфильм вчера, и сегодня

DVDInfo

Title: Komedy.dney.nnm.DVD5
Size: 4.22 Gb ( 4 420 882,00 KBytes ) - DVD-5
Enabled regions: 1, 2, 3, 4, 5, 6, 7, 8
VTS_01 :
Play Length: 00:00:28
Video: PAL 4:3 (720x576) VBR
VTS_02 :
Play Length: 00:07:49+{00:07:49}+{00:07:49}
Video: PAL 16:9 (720x576) VBR, Auto Letterboxed
Audio:
Russian (Dolby AC3, 2 ch)
VTS_03 :
Play Length: 01:20:02+{01:20:02}+{01:20:02}
Video: PAL 4:3 (720x576) VBR
Audio:
Russian (Dolby AC3, 2 ch)

MediaInfo

Общее
Полное имя : K:\Up\кино\Комедия давно минувших дней\Komedy.dney.nnm.DVD5\VIDEO_TS\VTS_03_2.VOB
Формат : MPEG-PS
Размер файла : 1024 Мбайт
Продолжительность : 21 м.
Общий поток : 6711 Кбит/сек
Видео
Идентификатор : 224 (0xE0)
Формат : MPEG Video
Версия формата : Version 2
Профиль формата : [email protected]
Параметр BVOP формата : Да
Параметр матрицы формата : Выборочная
Параметр GOP формата : M=3, N=15
Продолжительность : 21 м.
Битрейт : 6386 Кбит/сек
Максимальный битрейт : 6400 Кбит/сек
Ширина : 720 пикселей
Высота : 576 пикселей
Соотношение сторон : 4:3
Частота кадров : 25,000 кадров/сек
Стандарт вещания : PAL
Цветовое пространство : YUV
Субдискретизация насыщенности : 4:2:0
Битовая глубина : 8 бит
Тип развёртки : Чересстрочная
Порядок развёртки : Нижнее поле первое
Метод сжатия : С потерями
Бит/(Пиксели*Кадры) : 0.616
Размер потока : 974 Мбайт (95%)
Аудио
Идентификатор : 189 (0xBD)-128 (0x80)
Формат : AC-3
Формат/Информация : Audio Coding 3
Расширение режима : CM (complete main)
Режим смешивания : DVD-Video
Продолжительность : 21 м.
Вид битрейта : Постоянный
Битрейт : 192 Кбит/сек
Каналы : 2 канала
Расположение каналов : Front: L R
Частота : 48,0 КГц
Битовая глубина : 16 бит
Метод сжатия : С потерями
Задержка видео : -720 мс.
Размер потока : 29,3 Мбайт (3%)
Меню

Обложка,диск

   

Скриншоты меню

       
Скриншоты:      
     
Время раздачи: С 09:00 до 24:00 мск-Все релизы Комедия давно минувших дней на NNM-CLUB-
Other forum [Profile] [PM]
Similar theme
Forum Topic Author Torrent Replies Last Post
./templates/default/images/folder_dl.gif Фильмы 2001-2010 Убойный уикенд / Cottage Country (Питер Веллингтон) (Боевик, Криминал, Комедия 2013) HDRip [VO] Omen
1 | 0

0 | 1618

20

2013-07-13 22:53
Omen Latest
./templates/default/images/folder_dl.gif Зарубежные сериалы Комиссар полиции / The Commish / Сезон: 5 / Серии: 1 из 4 (Майлз Уоткинс, Джеймс Уитмор мл.) [1995, драма, комедия, криминал, детектив,, VHSRip] AVO (Сергей Визгунов) Omen
0 | 1

0 | 598

0

2016-04-11 09:33
Omen Latest
./templates/default/images/folder_dl.gif Новинки (CamRip|TS) Тор: Рагнарёк / Thor: Ragnarok (Тайка Вайтити) [2017 г., фантастика, боевик, комедия, приключенияя, TS 720p] L | КОЛОБОК Theseus
1 | 0

0 | 21164

27

2017-10-30 22:52
Theseus Latest
./templates/default/images/folder_dl.gif Новинки (HD|DVD|BD|WEB|TV|SAT|PDTV|-Rip) Под Сильвер-Лэйк / Under the Silver Lake (Дэвид Роберт Митчелл) [2018 г., триллер, драма, комедия, криминал, детектив, BDRip]DUB | iTunes kilmister777
1 | 0

0 | 583

3

2019-02-03 17:35
kilmister777 Latest
Display posts from previous:    
Reply to topic

The time now is: Today 05:17

All times are GMT + 3 Hours



You cannot post new topics in this forum
You cannot reply to topics in this forum
You cannot edit your posts in this forum
You cannot delete your posts in this forum
You cannot vote in polls in this forum
You cannot attach files in this forum
You cannot download files in this forum