Сегодня идет свободное скачивание без начисления Download

Комедия давно минувших дней (1980) DVD5

Ответить на тему
 
Автор
Сообщение

Omen ®

Стаж: 6 лет

Сообщений: 184329

Торрент-статистика

Пост 13-Янв-2013 10:17

[Цитировать]

-Комедия давно минувших дней (1980) DVD5- Русское название: Комедия давно минувших дней
Год выпуска: 1980
Жанр: Комедия
Производство: СССР, Мосфильм
Описание фильма:
Приключения известных комедийных персонажей Бывалого и Труса, а также Остапа Бендера и Кисы Воробьянинова. На сей раз, они узнают о кладе в миллион золотых, спрятанном в неизвестном приморском городке, в доме, запечатленном в одной из комедий немого кино. Получив фотографию дома, жулики отправились на поиски… в киноархив.
Режиссер: Юрий Кушнерев
Актеры: Арчил Гомиашвили, Сергей Филиппов, Евгений Моргунов, Георгий Вицин, Анатолий Веденкин, Владимир Грамматиков, Георгий Георгиу, Валерий Косенков, Алексей Коняшин, Елизавета Никищихина, Владимир Пожидаев, Ян Янакиев, Герман Качин, Николай Крючков, Анатолий Кторов, Федор Курихин, Марина Ладынина, Вероника Лебедева, Вера Марецкая, Сергей Мартинсон, Ева Милютина...
Продолжительность: 01:20:02

Видеокодек: MPEG-2
Битрейт видео: ~6386 kbps
Размер кадра: 720х[email protected]х576
Качество видео: DVD5 R5
Аудио: (Dolby AC3 2.0) 192 kbps Русский
Доп.материалы: Мосфильм вчера, и сегодня

DVDInfo

Title: Komedy.dney.nnm.DVD5
Size: 4.22 Gb ( 4 420 882,00 KBytes ) - DVD-5
Enabled regions: 1, 2, 3, 4, 5, 6, 7, 8
VTS_01 :
Play Length: 00:00:28
Video: PAL 4:3 (720x576) VBR
VTS_02 :
Play Length: 00:07:49+{00:07:49}+{00:07:49}
Video: PAL 16:9 (720x576) VBR, Auto Letterboxed
Audio:
Russian (Dolby AC3, 2 ch)
VTS_03 :
Play Length: 01:20:02+{01:20:02}+{01:20:02}
Video: PAL 4:3 (720x576) VBR
Audio:
Russian (Dolby AC3, 2 ch)

MediaInfo

Общее
Полное имя : K:\Up\кино\Комедия давно минувших дней\Komedy.dney.nnm.DVD5\VIDEO_TS\VTS_03_2.VOB
Формат : MPEG-PS
Размер файла : 1024 Мбайт
Продолжительность : 21 м.
Общий поток : 6711 Кбит/сек
Видео
Идентификатор : 224 (0xE0)
Формат : MPEG Video
Версия формата : Version 2
Профиль формата : [email protected]
Параметр BVOP формата : Да
Параметр матрицы формата : Выборочная
Параметр GOP формата : M=3, N=15
Продолжительность : 21 м.
Битрейт : 6386 Кбит/сек
Максимальный битрейт : 6400 Кбит/сек
Ширина : 720 пикселей
Высота : 576 пикселей
Соотношение сторон : 4:3
Частота кадров : 25,000 кадров/сек
Стандарт вещания : PAL
Цветовое пространство : YUV
Субдискретизация насыщенности : 4:2:0
Битовая глубина : 8 бит
Тип развёртки : Чересстрочная
Порядок развёртки : Нижнее поле первое
Метод сжатия : С потерями
Бит/(Пиксели*Кадры) : 0.616
Размер потока : 974 Мбайт (95%)
Аудио
Идентификатор : 189 (0xBD)-128 (0x80)
Формат : AC-3
Формат/Информация : Audio Coding 3
Расширение режима : CM (complete main)
Режим смешивания : DVD-Video
Продолжительность : 21 м.
Вид битрейта : Постоянный
Битрейт : 192 Кбит/сек
Каналы : 2 канала
Расположение каналов : Front: L R
Частота : 48,0 КГц
Битовая глубина : 16 бит
Метод сжатия : С потерями
Задержка видео : -720 мс.
Размер потока : 29,3 Мбайт (3%)
Меню

Обложка,диск

   

Скриншоты меню

       
Скриншоты:      
     
Время раздачи: С 09:00 до 24:00 мск-Все релизы Комедия давно минувших дней на NNM-CLUB-
Вне форума [Профиль] [ЛС]
Похожие темы
Форум Тема Автор Торрент Отв. Посл. сообщение
./templates/default/images/folder_dl.gif Фильмы 2001-2010 Седьмой / Cheung Gong 7 hou (Стивен Чоу) [2008 г., фантастика, фэнтези, комедия, драма, семейный, BDRip 1080p] mudry
0 | 1

0 | 1934

7

2010-09-29 16:45
mudry Последнее
./templates/default/images/folder_dl.gif Фильмы до 2000 года Гений (2 серии из 2) [Виктор Сергеев] (Комедия, Криминал, 1991) DVDRip Omen
1 | 0

0 | 3201

18

2013-06-01 21:54
Omen Последнее
./templates/default/images/folder_dl.gif Зарубежные сериалы Лиллехаммер / Lilyhammer (Полный 1-ый сезон) (Geir Henning Hopland, Simen Alsvik) [2012, комедия, драма, криминальный, Blu-ray] [1080i] {2-Disc Edition} [AVO] (Ю. Сербин) + [MVO] (Первый канал) maxkiller
0 | 1

0 | 802

0

2013-09-24 12:00
maxkiller Последнее
./templates/default/images/folder_dl.gif Фильмы 2001-2010 Кадры / The Internship (Шон Леви) [2013, комедия, HDRip | Unrated Cut] DUB [Лицензия] O.S.A.
1 | 0

1 | 571

30

2014-01-24 13:16
Valdemar-olvi Последнее
./templates/default/images/folder_dl.gif Фильмы до 2000 года Не бойся, я с тобой! (Юлий Гусман) [1981, Комедия, Приключения, DVDRip] [H.264] Omen
1 | 0

0 | 1487

18

2014-09-24 12:59
Omen Последнее
./templates/default/images/folder_dl.gif Фильмы в формате 3D (*iso) Зелёный Шершень в 3Д / The Green Hornet 3D (Мишель Гондри / Michel Gondry) [2011, боевик, комедия, криминал, Blu-ray Remux 1080p] BD3D CEE Omen
1 | 0

0 | 1587

11

2014-12-21 23:00
Omen Последнее
./templates/default/images/folder_dl.gif Фильмы до 2000 года Близнецы - драконы (Полная китайская версия) / Shuang Long Hui (HK Full Version) (Ринго Лам, Цуй Харк) [1992, боевик, комедия, BDRip] MVO O.S.A.
1 | 0

1 | 1409

5

2016-06-14 16:04
Анатолий Солошенко Последнее
./templates/default/images/folder_dl.gif Аниме основной подраздел Наруто + Наруто: Ураганные хроники. Без филлеров! Без повторов! / Naruto + Naruto Shippuuden (Датэ Хаято, Юки Эри) [2002 г., приключения, комедия, боевые искусства, сёнэн, HDTVRip] ALexLeo117
1 | 0

0 | 4825

0

2017-04-24 12:12
ALexLeo117 Последнее
./templates/default/images/folder_dl.gif Новинки (BD|HDTV|DVD) Последний богатырь (Дмитрий Дьяченко) [2017, комедия, семейный, фэнтези, WEB-DL 1080p] | iTunes Theseus
1 | 0

0 | 3322

34

2017-12-07 23:43
Theseus Последнее
./templates/default/images/folder_dl.gif Новинки (HD|DVD|BD|WEB|TV|SAT|PDTV|-Rip) Kingsman: Золотое кольцо / Kingsman: The Golden Circle (Мэттью Вон) [2017 г., боевик, комедия, приключения, BDRip-AVC] DUB | iTunes Theseus
1 | 0

0 | 1694

13

2017-12-30 01:02
Theseus Последнее
Показать сообщения:    
Ответить на тему

Текущее время: Сегодня 18:47

Часовой пояс: GMT + 3



Вы не можете начинать темы
Вы не можете отвечать на сообщения
Вы не можете редактировать свои сообщения
Вы не можете удалять свои сообщения
Вы не можете голосовать в опросах
Вы не можете прикреплять файлы к сообщениям
Вы не можете скачивать файлы