Сегодня идет свободное скачивание без начисления Download

Короткие встречи (1967) DVD5

Ответить на тему
 
Автор
Сообщение

Omen ®

Стаж: 5 лет 10 месяцев

Сообщений: 184329

Торрент-статистика

Пост 13-Янв-2013 10:17

[Цитировать]

-Короткие встречи (1967) DVD5- Русское название: Короткие встречи
Год выпуска: 1967
Жанр: Драма, Мелодрама
Описание фильма:
Покинув родное село, Надя вместе с подругой едет в большой город. По пути девушка устраивается на работу в чайную и знакомится с Максимом — молодым геологом, человеком талантливым и образованным.
В общем, он обладал всеми достоинствами, которые необходимы в подобных ситуациях, но… у него была любимая женщина, которая жила в городе и ждала его в своем доме. В этот самый дом и приезжает влюбленная, разыскивающая Максима Надя. Так случилось, что Валентина Ивановна радушно приняла девушку и предложила ей остаться, присматривать за хозяйством — сама она занимает довольно высокий пост в администрации города, работу свою любит и отдает ей очень много сил и времени.
Долго и внимательно вникала Надя в довольно странные отношения между супругами и наконец поняла, что она не имеет права вмешиваться в чужую жизнь…
Режиссер: Кира Муратова
Актеры: Нина Русланова, Владимир Высоцкий, Кира Муратова, Ольга Викланд, Алексей Глазырин, Валерий Исаков, Татьяна Мидная, Кирилл Маринченко, Светлана Немоляева, Григорий Коган
Продолжительность: 01:31:34

Видеокодек: MPEG-2
Битрейт видео: ~5500 Кбит/сек
Размер кадра: 720 х 576
Качество видео: DVD5
Аудиокодек: AC3 2.0
Битрейт аудио: 192 Кбит/сек

DVDInfo

Title: Elements
Size: 3.73 Gb ( 3 910 668 KBytes ) - DVD-5
Enabled regions: 1, 2, 3, 4, 5, 6, 7, 8
VTS_01 :
Play Length: 01:31:34
Video: PAL 4:3 (720x576) VBR
Audio:
Russian (Dolby AC3, 2 ch)

MediaInfo

Общее
Полное имя : G:\DVD\Korotkie vstrechi 1967 DVD5\VIDEO_TS\VTS_01_1.VOB
Формат : MPEG-PS
Размер файла : 1024 Мбайт
Продолжительность : 24 м.
Общий поток : 5794 Кбит/сек
Видео
Идентификатор : 224 (0xE0)
Формат : MPEG Video
Версия формата : Version 2
Профиль формата : [email protected]
Параметр BVOP формата : Нет
Параметр матрицы формата : По умолчанию
Параметр GOP формата : N=15
Продолжительность : 24 м.
Битрейт : 5500 Кбит/сек
Ширина : 720 пикселей
Высота : 576 пикселей
Соотношение сторон : 4:3
Частота кадров : 25,000 кадров/сек
Стандарт вещания : PAL
Цветовое пространство : YUV
Субдискретизация насыщенности : 4:2:0
Битовая глубина : 8 бит
Тип развёртки : Чересстрочная
Порядок развёртки : Верхнее поле первое
Метод сжатия : С потерями
Бит/(Пиксели*Кадры) : 0.530
Размер потока : 969 Мбайт (95%)
Аудио
Идентификатор : 189 (0xBD)-128 (0x80)
Формат : AC-3
Формат/Информация : Audio Coding 3
Расширение режима : CM (complete main)
Параметр Endianness формата : Big
Режим смешивания : DVD-Video
Продолжительность : 24 м.
Вид битрейта : Постоянный
Битрейт : 192 Кбит/сек
Каналы : 2 канала
Расположение каналов : Front: L R
Частота : 48,0 КГц
Битовая глубина : 16 бит
Метод сжатия : С потерями
Размер потока : 33,9 Мбайт (3%)
Меню

Дополнительно

Бонусы: Фильмография
Субтитры: нет

Скриншоты меню

   
Скриншоты:                

Рецензия, отзыв о фильме

Первый самостоятельный фильм 33-летней Киры Муратовой (она ещё исполнила по вынужденным обстоятельствам главную женскую роль Валентины Ивановны, ответственной сотрудницы горсовета, которая переживает спорадический роман с геологом Максимом, кроме того, оказывая поддержку деревенской девушке Наде и даже не зная, что у неё тоже были свои короткие встречи с тем же самым мужчиной) является во многих смыслах переходным произведением. Постановщица словно избавляется от необходимости фабульного, линейного и психологически заданного повествования благодаря свободному чередованию сцен и включению внесюжетных лирико-поэтических отступлений, а также более явно выражает собственное пристрастие к остраняющим приёмам как изобразительного, так и словесного плана. Можно было бы сказать, что настоящая Муратова начинается именно с этой картины, хотя отдельные фирменные детали без особого труда обнаруживаются и в двух прежних работах, созданных в соавторстве с Александром Муратовым.
А вот по сравнению с лентами среднего и позднего периода ранние фильмы Киры Муратовой (и «Короткие встречи», и «Долгие проводы», снятые одним оператором Геннадием Карюком) теперь кажутся удивительно прозрачными и почти классически строгими по своему кинематографическому изображению. Да и производят редкостное ностальгическое впечатление, словно после какого-то длительного периода, роясь на антресолях в собственном доме, вдруг находишь давно забытый старый фотоальбом. И с неким удивлением рассматриваешь, как на фотографиях зафиксирована твоя жизнь, а ещё с изумлением вспоминаешь, каким же ты был много лет назад. Вот и это муратовское кино настолько проникает в глубину тебя самого, что уже начинаешь воспринимать его будто свою личную биографию, непонятно как подсмотренную чутким художником.
Время раздачи: 24/7, до 10 скачавших-Релиз-группа: by almikl ®-Все релизы Короткие встречи на NNM-CLUB-
Вне форума [Профиль] [ЛС]
Показать сообщения:    
Ответить на тему

Текущее время: Сегодня 02:00

Часовой пояс: GMT + 3



Вы не можете начинать темы
Вы не можете отвечать на сообщения
Вы не можете редактировать свои сообщения
Вы не можете удалять свои сообщения
Вы не можете голосовать в опросах
Вы не можете прикреплять файлы к сообщениям
Вы не можете скачивать файлы