Today is a free download without charge Download

Иван Васильевич меняет профессию (1973) DVD5

Reply to topic
 
Author
Message

Omen ®

Longevity: 6 years 8 months

Posts: 181090

Торрент-статистика

Post 13-Jan-2013 10:17

[Quote]

-Иван Васильевич меняет профессию (1973) DVD5- Русское название: Иван Васильевич меняет профессию
Год выпуска: 1973
Жанр: Фантастика, комедия, приключения, семейный
Описание фильма:
Инженер-изобретатель Тимофеев сконструировал машину времени, которая соединила его квартиру с далеким шестнадцатым веком — точнее, с палатами государя Ивана Грозного. Туда-то и попадают тезка царя пенсионер-общественник Иван Васильевич Бунша и квартирный вор Жорж Милославский.
На их место в двадцатом веке «переселяется» великий государь. Поломка машины приводит ко множеству неожиданных и забавных событий…
Режиссер: Леонид Гайдай
Актеры: Юрий Яковлев, Леонид Куравлев, Александр Демьяненко, Савелий Крамаров, Наталья Селезнева, Наталья Крачковская, Наталья Кустинская, Владимир Этуш, Михаил Пуговкин, Сергей Филиппов, Эдуард Бредун, Александр Вигдоров, Валентин Грачев, Наталья Гурзо, Иван Жеваго, Анатолий Калабулин, Нина Маслова, Анатолий Подшивалов, Виктор Уральский, Виктор Шульгин, Юрий Чернов, Елена Вольская, Лариса Еремина, Любовь Мышева, Курбан Мазанов, Николай Маликов, Владимир Мышкин, Юрий Потемкин, Андрей Рабинович, Михаил Содорский

Продолжительность: 01:27:53
Видеокодек: MPEG-2
Битрейт видео: ~6100 kb/s
Размер кадра: 720x576, PAL, 25 fps, 4:3
Качество видео: DVD5
Аудиокодек: AC3 5.1
Аудио: русский, AC3, 6ch, 48kHz, 448 kbps

DVDinfo

Title: DATA_2
Size: 4.36 Gb ( 4 576 826 KBytes ) - DVD-5
Enabled regions: 1, 2, 3, 4, 5, 6
VTS_01 :
Play Length:
Video: PAL 4:3 (720x576) VBR
Audio:
Russian (Dolby AC3, 6 ch)
VTS_02 :
Play Length: 01:27:53
Video: PAL 4:3 (720x576) VBR
Audio:
Russian (Dolby AC3, 6 ch)
Russian (Dolby AC3, 2 ch)

MediaInfo

General
Complete name : E:\DVDs\IVAN_VASIL_BDDVD5\VIDEO_TS\VTS_02_2.VOB
Format : MPEG-PS
File size : 1 024 MiB
Duration : 21mn 24s
Overall bit rate : 6 690 Kbps
Video
ID : 224 (0xE0)
Format : MPEG Video
Format version : Version 2
Format profile : [email protected]
Format settings, BVOP : Yes
Format settings, Matrix : Custom
Format settings, GOP : M=3, N=15
Duration : 21mn 23s
Bit rate mode : Variable
Bit rate : 6 109 Kbps
Nominal bit rate : 9 150 Kbps
Width : 720 pixels
Height : 576 pixels
Display aspect ratio : 4:3
Frame rate : 25.000 fps
Standard : PAL
Color space : YUV
Chroma subsampling : 4:2:0
Bit depth : 8 bits
Scan type : Interlaced
Scan order : Top Field First
Compression mode : Lossy
Bits/(Pixel*Frame) : 0.589
Stream size : 935 MiB (91%)
Audio
ID : 189 (0xBD)-128 (0x80)
Format : AC-3
Format/Info : Audio Coding 3
Mode extension : CM (complete main)
Muxing mode : DVD-Video
Duration : 21mn 24s
Bit rate mode : Constant
Bit rate : 448 Kbps
Channel(s) : 6 channels
Channel positions : Front: L C R, Side: L R, LFE
Sampling rate : 48.0 KHz
Bit depth : 16 bits
Compression mode : Lossy
Delay relative to video : -408ms
Stream size : 68.6 MiB (7%)
Menu

Доп. информация

Автор и создатель диска многоуважаемый GAMBIT с соседнего сайта, за что ему огромное спасибо. Исходник видео и звука - BluRay. Видео перекодировано в ProCoder 3, звук перекодирован в Soft Encode. Меню, чаптеры и субтитры взяты из DVD R5.

Скриншоты меню

Скриншоты :
Время раздачи:
Раздача в будни: с 19:00 до 02:00 по Москве
Раздача в выходные: с 10:00 до 02:00 по Москве
Other forum [Profile] [PM]
Display posts from previous:    
Reply to topic

The time now is: Today 12:38

All times are GMT + 3 Hours



You cannot post new topics in this forum
You cannot reply to topics in this forum
You cannot edit your posts in this forum
You cannot delete your posts in this forum
You cannot vote in polls in this forum
You cannot attach files in this forum
You cannot download files in this forum