Сегодня идет свободное скачивание без начисления Download

Печки - лавочки (1972) DVD9

Ответить на тему
 
Автор
Сообщение

Omen ®

Стаж: 6 лет

Сообщений: 184329

Торрент-статистика

Пост 13-Янв-2013 10:17

[Цитировать]

-Печки - лавочки (1972) DVD9- Оригинальное название: Печки - лавочки
Год выпуска: 1972
Жанр: Комедия
Производство: СССР, Студия Горького

Премьера: 2 апреля 1972
Режиссер: Василий Шукшин
Актеры: Василий Шукшин, Лидия Федосеева-Шукшина, Всеволод Санаев, Георгий Бурков, Зиновий Гердт, Наталья Гвоздикова, Мария Шукшина, Ольга Шукшина, Иван Рыжов, Станислав Любшин, Вадим Захарченко, Елизавета Уварова, Любовь Мышева, Любовь Соколова, Виктор Филиппов, Алексей Локтев, Юрий Филимонов, Вадим Спиридонов, Валентина Куценко, Борис Марков, Людмила Зайцева, Ксения Минина, Елена Санаева, Пантелеймон Крымов, Никита Астахов, Леонид Юхин, Анатолий Горбенко, Светлана Скрипкина, Федор Ершов-Тилилицкий, Анатолий Заболоцкий, Леонид Енгибаров...
Описание фильма:
История о путешествии к южному морю семейной пары из далекого алтайского села. Супруги впервые в жизни едут в отпуск по выделенной профкомом путевке, да еще в отдельном купе! Дорожные приключения и ритм новой жизни увлекают их, но и среди красот южной природы не могут они забыть о родных местах и близких людях, которые ждут их возвращения..
Качество видео: DVD9
Продолжительность: 01:35:54
Видеокодек: MPEG-2
Битрейт видео: ~ 8000 kbps
Размер кадра: 720х576**1024х576
Аудио:
Аудио # 1: Русский: 48 kHz, AC3, 6 ch, ~448 kbps avg
Аудио # 2: Русский: 48 kHz, AC3, 1 ch, ~128 kbps avg
Субтитры: Русские, английские
Доп. материалы: Интервью с актрисой Е. Санаевой
фотоальбом "Памяти Василия Шукшина: человек"
фильмографии, смотрите на DVD
Полное издание от RUSCICO

DVDInfo

Title:
Size: 6.02 Gb ( 6 314 432 KBytes ) - DVD-9
Enabled regions: 1, 2, 3, 4, 5, 6, 7, 8
VTS_01 :
Play Length: 00:00:28
Video: PAL 4:3 (720x576) VBR
VTS_08 :
Play Length: 00:01:28
Video: PAL 4:3 (720x576) VBR
Audio:
Russian (Dolby AC3, 2 ch)
Subtitles:
Russian
English
VTS_11 :
Play Length: 00:01:01
Video: PAL 4:3 (720x576) VBR
Audio:
Russian (Dolby AC3, 2 ch)
Menu Video:
PAL 16:9 (720x576) VBR
Auto Pan&Scan, Auto Letterboxed
Menu Subtitles:
Not specified
Menu English Language Unit :
Root Menu

MediaInfo

Format : MPEG-PS
File size : 1 024 MiB
Duration : 19mn 2s
Overall bit rate mode : Variable
Overall bit rate : 7 519 Kbps
Video
ID : 224 (0xE0)
Format : MPEG Video
Format version : Version 2
Format profile : [email protected]
Format settings, BVOP : Yes
Format settings, Matrix : Custom
Format settings, GOP : M=3, N=9
Duration : 19mn 2s
Bit rate mode : Variable
Maximum bit rate : 8 000 Kbps
Width : 720 pixels
Height : 576 pixels
Display aspect ratio : 16:9
Frame rate : 25.000 fps
Standard : PAL
Color space : YUV
Chroma subsampling : 4:2:0
Bit depth : 8 bits
Scan type : Interlaced
Scan order : Top Field First
Compression mode : Lossy
Audio #1
ID : 189 (0xBD)-128 (0x80)
Format : AC-3
Format/Info : Audio Coding 3
Mode extension : CM (complete main)
Format settings, Endianness : Big
Muxing mode : DVD-Video
Duration : 19mn 2s
Bit rate mode : Constant
Bit rate : 448 Kbps
Channel(s) : 6 channels
Channel positions : Front: L C R, Side: L R, LFE
Sampling rate : 48.0 KHz
Bit depth : 16 bits
Compression mode : Lossy
Stream size : 61.0 MiB (6%)
Audio #2
ID : 189 (0xBD)-129 (0x81)
Format : AC-3
Format/Info : Audio Coding 3
Mode extension : CM (complete main)
Format settings, Endianness : Big
Muxing mode : DVD-Video
Duration : 19mn 2s
Bit rate mode : Constant
Bit rate : 128 Kbps
Channel(s) : 1 channel
Channel positions : Front: C
Sampling rate : 48.0 KHz
Bit depth : 16 bits
Compression mode : Lossy
Stream size : 17.4 MiB (2%)
Audio #3
ID : 200 (0xC8)
Format : MPEG Audio
Compression mode : Lossy
Text #1
ID : 189 (0xBD)-32 (0x20)
Format : RLE
Format/Info : Run-length encoding
Muxing mode : DVD-Video
Duration : 19mn 1s
Delay relative to video : 80ms
Text #2
ID : 189 (0xBD)-33 (0x21)
Format : RLE
Format/Info : Run-length encoding
Muxing mode : DVD-Video
Duration : 19mn 1s
Delay relative to video : 80ms
Menu

Полиграфия:

       

Скриншоты меню

       
     
Скриншоты:          
         
Время раздачи: 24/7
Вне форума [Профиль] [ЛС]
Показать сообщения:    
Ответить на тему

Текущее время: Сегодня 15:36

Часовой пояс: GMT + 3



Вы не можете начинать темы
Вы не можете отвечать на сообщения
Вы не можете редактировать свои сообщения
Вы не можете удалять свои сообщения
Вы не можете голосовать в опросах
Вы не можете прикреплять файлы к сообщениям
Вы не можете скачивать файлы